Korsar.tv - Скачать торрент - Прощайте, голуби (1960, киноповесть, SATRip-AVC)
logo
Международный русскоязычный
торрент-трекер
Menu

Doublon
Поделиться с друзьями: 
Голосуй за Корсар и получи 150 дублонов
Рейтинг торрент трекеров - UpTracker.ru

Прощайте, голуби (1960, киноповесть, SATRip-AVC)

Сообщение Korsar » 28 янв 2017, 09:20

Прощайте, голуби

Жанр: киноповесть
Год выпуска: 1960
Продолжительность: 01:31:07
Режиссёр: Яков Сегель
В ролях:
Алексей Локтев, Светлана Савёлова, Валентина Телегина, Сергей Плотников, Анна Николаева, Прасковья Постникова, Антонина Максимова, Александр Сумароков, Вера Предаевич, Леонид Галлис, Г. Игнатьева, Савелий Крамаров, Петр Вескляров

Описание:
Лирическая киноповесть о том, как нелегко начинать самостоятельную жизнь. Выпускнику ремесленного училища пришлось узнать это на собственном опыте. О его взрослении, вступлении в комсомол, о первой любви - этот фильм.
| Сэмпл | Кинопоиск
Качество видео: SATRip-AVC, благодарю Cheef mate за исходник.
Формат видео: MKV

Видео: x264: (High@L4.1); 672@716x544 25.000 fps; Display aspect ratio: 1.316:1; 2089 Kbps
Аудио: AC-3; 16 bit 48 Khz; 2.0ch 192 Kbps; CBR
avs [info]: 672x544p 16:15 @ 25/1 fps (cfr)
x264 [info]: using SAR=16/15
x264 [info]: profile High, level 4.1
x264 [info]: frame I:733 Avg QP:16.12 size: 52591
x264 [info]: frame P:30621 Avg QP:17.95 size: 25370
x264 [info]: frame B:105343 Avg QP:20.15 size: 5815
x264 [info]: consecutive B-frames: 1.9% 2.1% 8.9% 21.1% 24.5% 39.4% 1.9% 0.2% 0.2%
x264 [info]: ref P L0: 40.0% 12.5% 15.5% 5.9% 5.3% 3.6% 3.7% 1.9% 2.1% 1.6% 1.7% 1.4% 1.5% 1.2% 1.3% 0.9%
x264 [info]: ref B L0: 88.5% 5.4% 1.7% 1.0% 0.7% 0.6% 0.5% 0.3% 0.3% 0.3% 0.2% 0.2% 0.2% 0.2% 0.1%
x264 [info]: ref B L1: 98.8% 1.2%
x264 [info]: kb/s:2089.20

General
Unique ID : 233781166065661503229321910086180564110 (0xAFE09D649432F81884300000D63C6C8E)
Complete name : Прощайте голуби.1960.mkv
Format : Matroska
Format version : Version 2
File size : 1.45 GiB
Duration : 1 h 31 min
Overall bit rate : 2 283 kb/s
Encoded date : UTC 2016-10-24 14:06:11
Writing application : mkvmerge v5.8.0 ('No Sleep / Pillow') built on Sep 2 2012 15:37:04
Writing library : libebml v1.2.3 + libmatroska v1.3.0

Video
ID : 1
Format : AVC
Format/Info : Advanced Video Codec
Format profile : High@L4.1
Format settings, CABAC : Yes
Format settings, ReFrames : 16 frames
Codec ID : V_MPEG4/ISO/AVC
Duration : 1 h 31 min
Bit rate : 2 089 kb/s
Width : 672 pixels
Height : 544 pixels
Display aspect ratio : 4:3
Original display aspect rat : 4:3
Frame rate mode : Constant
Frame rate : 25.000 FPS
Color space : YUV
Chroma subsampling : 4:2:0
Bit depth : 8 bits
Scan type : Progressive
Bits/(Pixel*Frame) : 0.229
Stream size : 1.30 GiB (90%)
Title : Прощайте голуби.1960
Writing library : x264 core 148 r2721kMod 72d53ab
Encoding settings : cabac=1 / ref=16 / deblock=1:-2:-1 / analyse=0x3:0x133 / me=umh / subme=10 / psy=1 / fade_compensate=0.00 / psy_rd=1.00:0.15 / mixed_ref=1 / me_range=32 / chroma_me=1 / trellis=2 / 8x8dct=1 / cqm=0 / deadzone=21,11 / fast_pskip=0 / chroma_qp_offset=-3 / threads=12 / lookahead_threads=2 / sliced_threads=0 / nr=0 / decimate=0 / interlaced=0 / bluray_compat=0 / constrained_intra=0 / fgo=0 / bframes=8 / b_pyramid=2 / b_adapt=2 / b_bias=0 / direct=3 / weightb=1 / open_gop=0 / weightp=2 / keyint=250 / keyint_min=25 / scenecut=40 / intra_refresh=0 / rc_lookahead=60 / rc=2pass / mbtree=0 / bitrate=2089 / ratetol=1.0 / qcomp=0.65 / qpmin=0 / qpmax=69 / qpstep=4 / cplxblur=20.0 / qblur=0.5 / vbv_maxrate=62500 / vbv_bufsize=78125 / nal_hrd=none / filler=0 / ip_ratio=1.30 / pb_ratio=1.30 / aq=2:0.40
Language : Russian
Default : Yes
Forced : No
Color range : Limited
Color primaries : BT.601 PAL
Transfer characteristics : BT.470 System B, BT.470 System G
Matrix coefficients : BT.601

Audio
ID : 2
Format : AC-3
Format/Info : Audio Coding 3
Mode extension : CM (complete main)
Format settings, Endianness : Big
Codec ID : A_AC3
Duration : 1 h 31 min
Bit rate mode : Constant
Bit rate : 192 kb/s
Channel(s) : 2 channels
Channel positions : Front: L R
Sampling rate : 48.0 kHz
Frame rate : 31.250 FPS (1536 spf)
Compression mode : Lossy
Stream size : 125 MiB (8%)
Title : AC-3; 16 bit 48 Khz; 2.0ch 192 Kbps; CBR
Language : Russian
Default : Yes
Forced : No

Автор рипа: george$t

Боцман
Аватара пользователя
Korsar
Заслуженный Корсар-Вип
 
 

Награды: 31
За помощь проекту (2) Лучший по количеству кубков (1) За отличные раздачи и качество (13) За подробное оформление раздач (1) За отличные комментарии (1) Верный Сид (11) За участие в конкурсах/играх (2)
  • Торрент
Для скачивания торрента необходимо зарегистрироваться или войти на трекер.

Вернуться в Кино времён СССР



Uptime по данным Ping-Admin.Ru - сервиса мониторинга доступности сайтов
Рейтинг@Mail.ru