Korsar.tv - Скачать торрент - Прощание славянки (1985, Драма, DVDRip-AVC) - KORSAR
logo
Международный русскоязычный
торрент-трекер
Menu

Doublon
Поделиться с друзьями: 
Голосуй за Корсар и получи 150 дублонов
Рейтинг торрент трекеров - UpTracker.ru

Прощание славянки (1985, Драма, DVDRip-AVC) - KORSAR

Сообщение mister.hats » 12 мар 2018, 10:28

Прощание славянки


Страна: СССР
Жанр: Драма
Год выпуска: 1985
Продолжительность: 01:19:07
Перевод: Не требуется
Режиссер: Евгений Васильев
В ролях: Галина Макарова, Юрий Назаров, Евгений Лебедев, Наталья Гундарева, Тимофей Спивак, Виктор Павлов, Майя Булгакова, Екатерина Васильева (II), Анатолий Егоров, Надежда Семенцова, Наталья Острикова, Александр Лебедев (I), Тамара Совчи, Виктор Шубин, Сергей Насибов, Любовь Германова, Татьяна Рогозина

Описание: Полковник авиации в отставке приезжает летом на отдых в Крым. Приезжает дикарем, поэтому главной проблемой для него становится поиск места на ночлег. Ведь в этих краях летом полно отдыхающих, а для местных жителей сдать койку на ночь в эту пору - главный бизнес, да еще груш, яблок, винограду продать, глядишь и зиму спокойно можно прожить. Многие здесь за счет этого просто выживают, а некоторые черствеют душой, думают только о наживе, становятся циничными, безразличными к человеческим судьбам, хмурыми и злыми людьми. Все больше похожей на последних становится Анна Ивановна, квартирная хозяйка, у которой полковник находит приют на одну ночь. Разглядывая фото на стене в гостиной, он вдруг на одной из них узнает себя в юности вместе с другом, умершим от чахотки, оказавшимся сыном хозяйки...



Кодек: х264
Качество: DVDRip-AVC
Видео: MPEG-4 AVC, 698х572@744x572, 25 fps, 4000 Кбит/с
Аудио: АС3, 2h, 192 Кбит/с
Субтитры: Нет
Главы: Есть



x264 [info]: frame I:631 Avg QP:18.24 size: 73641
x264 [info]: frame P:24642 Avg QP:19.89 size: 43993
x264 [info]: frame B:93407 Avg QP:21.50 size: 13302

Общее
Уникальный идентификатор : 205554167261666692861057817490717635348 (0x9AA44AE753ECF65AB696155C79DB7314)
Полное имя : I:\ссср\Прощание славянки 1985_DVDRip-AVC_KORSAR.mkv
Формат : Matroska
Версия формата : Version 2
Размер файла : 2,32 Гбайт
Продолжительность : 1 ч. 19 м.
Общий поток : 4193 Кбит/сек
Дата кодирования : UTC 2018-03-12 07:21:31
Программа кодирования : mkvmerge v5.8.0 ('No Sleep / Pillow') built on Sep 2 2012 15:37:04
Библиотека кодирования : libebml v1.2.3 + libmatroska v1.3.0

Видео
Идентификатор : 1
Формат : AVC
Формат/Информация : Advanced Video Codec
Профиль формата : High@L4.1
Настройки формата : CABAC / 14 Ref Frames
Параметр CABAC формата : Да
Параметр RefFrames формата : 14 кадров
Идентификатор кодека : V_MPEG4/ISO/AVC
Продолжительность : 1 ч. 19 м.
Битрейт : 4000 Кбит/сек
Ширина : 698 пикселей
Высота : 572 пикселя
Соотношение сторон : 4:3
Соотношение сторон в оригинале : 4:3
Режим частоты кадров : Постоянный
Частота кадров : 25,000 кадров/сек
Цветовое пространство : YUV
Субдискретизация насыщенности : 4:2:0
Битовая глубина : 8 бит
Тип развёртки : Прогрессивная
Бит/(Пиксели*Кадры) : 0.401
Размер потока : 2,16 Гбайт (93%)
Библиотека кодирования : x264 core 152 r2851kMod ba24899
Настройки программы : cabac=1 / ref=14 / deblock=1:-2:-1 / analyse=0x3:0x133 / me=umh / subme=11 / psy=1 / fade_compensate=0.00 / psy_rd=0.90:0.02 / mixed_ref=1 / me_range=48 / chroma_me=1 / trellis=2 / 8x8dct=1 / cqm=0 / deadzone=21,11 / fast_pskip=0 / chroma_qp_offset=-3 / threads=12 / lookahead_threads=3 / sliced_threads=0 / nr=0 / decimate=0 / interlaced=0 / bluray_compat=0 / constrained_intra=0 / bframes=10 / b_pyramid=2 / b_adapt=2 / b_bias=0 / direct=3 / weightb=1 / open_gop=0 / weightp=2 / keyint=250 / keyint_min=25 / scenecut=40 / intra_refresh=0 / rc_lookahead=40 / rc=2pass / mbtree=0 / bitrate=4000 / ratetol=1.0 / qcomp=0.60 / qpmin=0 / qpmax=39 / qpstep=4 / cplxblur=20.0 / qblur=0.5 / vbv_maxrate=50000 / vbv_bufsize=62500 / nal_hrd=none / filler=0 / ip_ratio=1.15 / pb_ratio=1.30 / aq=1:1.00
Язык : English
Default : Да
Forced : Нет
Цветовой диапазон : Limited
Основные цвета : BT.601 PAL
Характеристики трансфера : BT.470 System B, BT.470 System G
Коэффициенты матрицы : BT.470 System B, BT.470 System G

Аудио
Идентификатор : 2
Формат : AC-3
Формат/Информация : Audio Coding 3
Параметр Endianness формата : Big
Идентификатор кодека : A_AC3
Продолжительность : 1 ч. 19 м.
Вид битрейта : Постоянный
Битрейт : 192 Кбит/сек
Каналы : 2 канала
Расположение каналов : Front: L R
Частота : 48,0 КГц
Частота кадров : 31,250 кадров/сек (1536 SPF)
Битовая глубина : 16 бит
Метод сжатия : С потерями
Размер потока : 109 Мбайт (5%)
Язык : Russian
Default : Да
Forced : Нет

Меню
00:00:00.000 : en:Chapter 1
00:02:10.200 : en:Chapter 2
00:16:22.800 : en:Chapter 3
00:31:01.800 : en:Chapter 4
00:42:58.800 : en:Chapter 5
00:53:06.600 : en:Chapter 6
01:09:21.600 : en:Chapter 7
01:15:52.800 : en:Chapter 8
01:18:04.200 : en:Chapter 9

Сравнение с исходником

Тот кто не с нами, тот против нас
Аватара пользователя
mister.hats
Заслуженный Корсар-Вип
 
 

Награды: 45
За помощь проекту (6) Лучший по количеству кубков (10) За отличные раздачи и качество (19) За подробное оформление раздач (1) За отличные комментарии (1) Верный Сид (8)
Раздачи группы KORSAR разрешено перезаливать спустя сутки после публикации
  • Торрент
Для скачивания торрента необходимо зарегистрироваться или войти на трекер.

Сообщение kwazar312 » 12 мар 2018, 11:37

Уважаемый mister.hats,большое спасибо за раздачу.Фильм хороший.
Удачи ВАМ.
Аватара пользователя
kwazar312
Заслуженный Корсар-Вип
 
 

Награды: 55
За помощь проекту (6) Лучший по количеству кубков (14) За отличные комментарии (8) Верный Сид (22) За участие в конкурсах/играх (5)

Сообщение verybigpapa » 12 мар 2018, 12:37

Уважаемый mister.hats, большое спасибо. :hi: :respect:
Улыбайтесь, господа! Улыбайтесь!
Аватара пользователя
verybigpapa
Заслуженный Корсар-Вип
 
 

Награды: 35
За помощь проекту (13) Лучший по количеству кубков (9) За отличные комментарии (5) Верный Сид (8)


Вернуться в Кино времён СССР



Uptime по данным Ping-Admin.Ru - сервиса мониторинга доступности сайтов
Рейтинг@Mail.ru