logo
Международный русскоязычный
торрент-трекер
Menu
Doublon
Поделиться с друзьями: 
Голосуй за Корсар и получи 500 дублонов
Рейтинг торрент трекеров - UpTracker.ru

Проклятие «Мэри» / Mary (2019, ужасы, BDRip 1080p) | iTunes

Сообщение kisa1980 » 11 ноя 2019, 23:09

Название: Проклятие «Мэри»
Оригинальное название: Mary
Год выпуска: 2019
Жанр: Ужасы
Режиссер: Майкл Гои
В ролях: Гари Олдман, Эмили Мортимер, Мануэль Рульфо, Стефани Скотт, Хлоя Перрин, Оуэн Тиг, Дженнифер Эспозито, Дуглас Урбански, Клер Бирн, Майкл Лэндис, Натали Жан, Гриффин Худ, Кэтрин Келли

О фильме: Глава семейства Дэвид покупает яхту на аукционе. Он надеется начать новый бизнес по морским перевозкам, и яхта «Мэри» должна стать счастливым билетом для него и его семьи. Но чем дальше в море уходит лодка, тем более жуткие вещи начинают происходить на борту.



Страна: США
Студия: Tucker Tooley Entertainment
Продолжительность: 01:24:27
Перевод: Дублированный | iTunes

Качество: BDRip 1080p
Видео: MPEG-4 AVC, 1920x804, 11.0 Mbit/s, 23.976 fps
Аудио 1: 48 kHz, AC3, 5.1, 384 Kbps | iTunes | RUS |
Аудио 2: 48 kHz, AC3, 5.1, 640 Kbps | Оригинал | ENG |
Субтитры: Английские

Релиз от:

General
Unique ID : 217911440796139621195335732569933317709 (0xA3F037871C7F98B622CC30FFB0B3864D)
Complete name : D:Video111Mary.2019.BDRip.1080p.seleZen.mkv
Format : Matroska
Format version : Version 4
File size : 7.08 GiB
Duration : 1 h 24 min
Overall bit rate : 12.0 Mb/s
Movie name : Mary 2019 from селезень
Encoded date : UTC 2019-11-16 12:36:41
Writing application : mkvmerge v40.0.0 ('Old Town Road + Pony') 64-bit
Writing library : libebml v1.3.9 + libmatroska v1.5.2

Video
ID : 1
Format : AVC
Format/Info : Advanced Video Codec
Format profile : High@L4.1
Format settings : CABAC / 5 Ref Frames
Format settings, CABAC : Yes
Format settings, Reference : 5 frames
Codec ID : V_MPEG4/ISO/AVC
Duration : 1 h 24 min
Bit rate : 11.0 Mb/s
Width : 1 920 pixels
Height : 804 pixels
Display aspect ratio : 2.40:1
Frame rate mode : Constant
Frame rate : 23.976 (24000/1001) FPS
Color space : YUV
Chroma subsampling : 4:2:0
Bit depth : 8 bits
Scan type : Progressive
Bits/(Pixel*Frame) : 0.297
Stream size : 6.47 GiB (91%)
Title : Encoded by seleZen
Writing library : x264 core 148 r2705kMod 3f5ed56
Encoding settings : cabac=1 / ref=5 / deblock=1:-2:-2 / analyse=0x3:0x113 / me=umh / subme=11 / psy=1 / fade_compensate=0.00 / psy_rd=1.00:0.01 / mixed_ref=1 / me_range=32 / chroma_me=1 / trellis=2 / 8x8dct=1 / cqm=0 / deadzone=21,11 / fast_pskip=0 / chroma_qp_offset=-3 / threads=24 / lookahead_threads=6 / sliced_threads=0 / nr=0 / decimate=0 / interlaced=0 / bluray_compat=0 / constrained_intra=0 / fgo=0 / bframes=10 / b_pyramid=2 / b_adapt=2 / b_bias=0 / direct=3 / weightb=1 / open_gop=0 / weightp=2 / keyint=240 / keyint_min=23 / scenecut=40 / intra_refresh=0 / rc_lookahead=50 / rc=2pass / mbtree=0 / bitrate=10987 / ratetol=1.0 / qcomp=0.60 / qpmin=0 / qpmax=51 / qpstep=4 / cplxblur=20.0 / qblur=0.5 / vbv_maxrate=50000 / vbv_bufsize=62500 / nal_hrd=none / filler=0 / ip_ratio=1.40 / pb_ratio=1.30 / aq=3:0.80
Language : English
Default : Yes
Forced : No

Audio #1
ID : 2
Format : AC-3
Format/Info : Audio Coding 3
Commercial name : Dolby Digital
Codec ID : A_AC3
Duration : 1 h 24 min
Bit rate mode : Constant
Bit rate : 384 kb/s
Channel(s) : 6 channels
Channel layout : L R C LFE Ls Rs
Sampling rate : 48.0 kHz
Frame rate : 31.250 FPS (1536 SPF)
Bit depth : 16 bits
Compression mode : Lossy
Stream size : 232 MiB (3%)
Title : iTunes
Language : Russian
Service kind : Complete Main
Default : Yes
Forced : Yes

Audio #2
ID : 3
Format : AC-3
Format/Info : Audio Coding 3
Commercial name : Dolby Digital
Codec ID : A_AC3
Duration : 1 h 24 min
Bit rate mode : Constant
Bit rate : 640 kb/s
Channel(s) : 6 channels
Channel layout : L R C LFE Ls Rs
Sampling rate : 48.0 kHz
Frame rate : 31.250 FPS (1536 SPF)
Bit depth : 16 bits
Compression mode : Lossy
Stream size : 387 MiB (5%)
Title : Original
Language : English
Service kind : Complete Main
Default : No
Forced : No

Text
ID : 4
Format : UTF-8
Codec ID : S_TEXT/UTF8
Codec ID/Info : UTF-8 Plain Text
Duration : 1 h 16 min
Bit rate : 42 b/s
Count of elements : 792
Stream size : 23.6 KiB (0%)
Title : Full
Language : English
Default : No
Forced : No

Menu
00:00:00.000 : en:Chapter 1
00:10:13.279 : en:Chapter 2
00:21:38.422 : en:Chapter 3
00:32:06.967 : en:Chapter 4
00:41:11.552 : en:Chapter 5
00:51:35.092 : en:Chapter 6
01:01:38.028 : en:Chapter 7
01:17:30.855 : en:Chapter 8
Последний раз редактировалось kisa1980 16 ноя 2019, 15:59, всего редактировалось 2 раз(а).
Причина: Поглощённый торрент
КУБКИ

СТАЖ

МЕДАЛИ
Награды:109

За активную помощь проекту (10) Лучший по количеству кубков (3) За отличные раздачи и качество (37) За подробное оформление раздач (6) За отличные комментарии (9) Почётный форумчанин (12) Верный Сид (28) За участие в конкурсах/играх (2)

Аватара пользователя
Тортуга
kisa1980
Главный помощник Администратора-Корсар
  • Торрент
Для скачивания торрента необходимо зарегистрироваться или войти на трекер.

Вернуться в Зарубежное кино (2011-2019 / HD Video)



Uptime по данным Ping-Admin.Ru - сервиса мониторинга доступности сайтов
Рейтинг@Mail.ru