logo
Международный русскоязычный
торрент-трекер
Menu
Поделиться с друзьями: 
Голосуй за Корсар и получи 500 дублонов
Рейтинг торрент трекеров - UpTracker.ru

Происшествие в каньоне / Проход каньона / Canyon Passage (1946, Боевик, драма, мелодрама, вестерн, BDRemux 1080p)

Сообщение al1ksandr » 29 июн 2020, 21:34

Название: Происшествие в каньоне (Проход каньона)
Оригинальное название: Canyon Passage
Год выпуска: 1946
Жанр: Боевик, драма, мелодрама, вестерн
Режиссер: Жак Турнер
В ролях: Дэна Эндрюс, Брайн Донлеви, Сьюзен Хэйуорд, Патрисия Рок, Уорд Бонд, Фэй Холден, Стэнли Риджс, Ллойд Бриджес, Энди Дивайн, Виктор Катлер, Роуз Хобарт, Джеймс Кардуэлл, Онслоу Стивенс
О фильме: Америка. 1856 год. Для Логана Стюрта, благородного и состоятельного бизнесмена, наступили непростые времена. Он стал свидетелем убийства, и за мужчиной начал охоту Хонни Брэгг, преступник, решивший убрать свидетеля. Вместе с этим старый приятель Джордж попросил Логана сопроводить в Джексонвилл, штат Орегон, свою невесту. Сам Джордж крупно проигрывается в карты и только добавляет проблем Логану. Герою приходится засучить рукава, собрать волю в кулак и в одиночку вытаскивать приятеля из беды.



Выпущено: США, Walter Wanger Productions
Продолжительность: 01:31:47
Перевод: Любительский одноголосый

Качество: BDRemux 1080p
Видео: MPEG-4 AVC, 36.8 Mбит/с, 1920x1080, 23.976 Кадр/с
Аудио 1: Русский (АС3, 2 ch, 192 Кбит/с) | Любительский одноголосый (NezPerce)
Аудио 2: Английский (DTS-HD MA, 2 ch, 1557 Кбит/с)
Субтитры: Английские

Оскар, 1947 год
Номинации (1):

Лучшая песня — «Ole Buttermilk Sky»




Общее
Уникальный идентификатор : 179766653109792726976196685223472843851 (0x873DCC4B363DFC3B71A837F8D4AACC4B)
Полное имя : Canyon.Passage.1946.BluRay.REMUX.1080p.mkv
Формат : Matroska
Версия формата : Version 4
Размер файла : 24,7 Гбайт
Продолжительность : 1 ч. 31 м.
Режим общего битрейта : Переменный
Общий поток : 38,6 Мбит/сек
Название фильма : Canyon.Passage.1946.BluRay.REMUX.1080p
Дата кодирования : UTC 2020-06-28 13:05:06
Программа кодирования : mkvmerge v46.0.0 ('No Deeper Escape') 32-bit
Библиотека кодирования : libebml v1.3.10 + libmatroska v1.5.2
Обложка : Yes
Attachments : cover.jpg

Видео
Идентификатор : 1
Формат : AVC
Формат/Информация : Advanced Video Codec
Профиль формата : High@L4.1
Настройки формата : CABAC / 4 Ref Frames
Параметр CABAC формата : Да
Параметр RefFrames формата : 4 кадра
Идентификатор кодека : V_MPEG4/ISO/AVC
Продолжительность : 1 ч. 31 м.
Вид битрейта : Переменный
Битрейт : 36,8 Мбит/сек
Максимальный битрейт : 40,0 Мбит/сек
Ширина : 1920 пикселей
Высота : 1080 пикселей
Соотношение сторон : 16:9
Режим частоты кадров : Постоянный
Частота кадров : 23,976 (24000/1001) кадра/сек
Цветовое пространство : YUV
Субдискретизация насыщенности : 4:2:0
Битовая глубина : 8 бит
Тип развёртки : Прогрессивная
Бит/(Пиксели*Кадры) : 0.741
Размер потока : 23,6 Гбайт (95%)
Заголовок : recked89
Язык : English
Default : Да
Forced : Нет

Аудио #1
Идентификатор : 2
Формат : AC-3
Формат/Информация : Audio Coding 3
Коммерческое название : Dolby Digital
Идентификатор кодека : A_AC3
Продолжительность : 1 ч. 31 м.
Вид битрейта : Постоянный
Битрейт : 192 Кбит/сек
Каналы : 2 канала
Channel layout : L R
Частота : 48,0 КГц
Частота кадров : 31,250 кадров/сек (1536 SPF)
Битовая глубина : 16 бит
Метод сжатия : С потерями
Размер потока : 126 Мбайт (0%)
Заголовок : VO - NezPerce
Язык : Russian
ServiceKind/String : Complete Main
Default : Да
Forced : Нет

Аудио #2
Идентификатор : 3
Формат : DTS XLL
Формат/Информация : Digital Theater Systems
Коммерческое название : DTS-HD Master Audio
Идентификатор кодека : A_DTS
Продолжительность : 1 ч. 31 м.
Вид битрейта : Переменный
Битрейт : 1557 Кбит/сек
Каналы : 2 канала
Channel layout : L R
Частота : 48,0 КГц
Частота кадров : 93,750 кадра/сек (512 SPF)
Битовая глубина : 16 бит
Метод сжатия : Без потерь
Размер потока : 1022 Мбайт (4%)
Заголовок : Original
Язык : English
Default : Нет
Forced : Нет

Текст
Идентификатор : 4
Формат : UTF-8
Идентификатор кодека : S_TEXT/UTF8
Идентификатор кодека/Информация : UTF-8 Plain Text
Продолжительность : 1 ч. 29 м.
Битрейт : 61 бит/сек
ElementCount : 1196
Размер потока : 40,4 Кбайт (0%)
Заголовок : SRT
Язык : English
Default : Да
Forced : Нет

Меню
00:00:00.000 : en:Opening Titlesr
00:09:50.750 : en:Leaving at five sharp
00:19:54.542 : en:There she is, George
00:32:35.042 : en:Timber
00:43:04.250 : en:What are you thinking, Logan?
00:52:37.500 : en:Banker's dust
01:02:35.375 : en:Jealous?
01:12:32.208 : en:Guilty!
01:20:25.292 : en:We were jumped

Релиз: Koenig
КУБКИ

СТАЖ

МЕДАЛИ
Награды:56

За активную помощь проекту (4) Лучший по количеству кубков (16) За отличные раздачи и качество (13) За подробное оформление раздач (1) За отличные комментарии (15) Почётный форумчанин (3) Верный Сид (1) За участие в конкурсах/играх (2)

Аватара пользователя
СССР
al1ksandr
Главный Модератор-Корсар
  • Торрент
Для скачивания торрента необходимо зарегистрироваться или войти на трекер.

Вернуться в Классика зарубежного кино (фильмы до 1980 года / HD Video)



Uptime по данным Ping-Admin.Ru - сервиса мониторинга доступности сайтов
Рейтинг@Mail.ru