Korsar.tv - Скачать торрент - Призрак Черной Бороды / Blackbeard's Ghost (1968, Комедия, семейный, HDRip-AVC) - KORSAR
logo
Международный русскоязычный
торрент-трекер
Menu

Doublon
Поделиться с друзьями: 
Голосуй за Корсар и получи 150 дублонов
Рейтинг торрент трекеров - UpTracker.ru

Призрак Черной Бороды / Blackbeard's Ghost (1968, Комедия, семейный, HDRip-AVC) - KORSAR

Сообщение mzma » 09 авг 2018, 18:14

Название: Призрак Черной Бороды
Оригинальное название: Blackbeard's Ghost
Год выпуска: 1968
Выпущено: США, Walt Disney Productions
Жанр: Комедия, семейный
Режиссер: Роберт Стивенсон
В ролях: Питер Устинов, Дин Джонс, Сюзанн Плешетт, Эльза Ланчестер, Джоби Бэйкер, Эллиот Рид, Ричард Дикон, Норман Грабовски, Келли Тордсэн, Майкл Конрад, Херби Фэй, Джордж Мёрдок, Хэнк Джонс, Нед Глэсс, Джил Ламб, Алан Карни, Тед Маркленд, Лу Нова, Чарли Брилл, Херб Вигран

О фильме: Стив Уокер прибывает в город Годолфин, чтобы стать тренером по легкой атлетике в местном колледже. Ночь его прибытия совпадает с благотворительным аукционом в «Гостинице Черной Бороды», отеле, которым управляют пожилые дамы, потомки пирата. Владельцы пытаются заплатить ипотеку, чтобы препятствовать местному преступному боссу, желающему построить казино на этой земле. В первую же ночь к Стиву является призрак Черной Бороды. Известный пират был проклят его последней женой, которая была ведьмой. Он вынужден путешествовать внутри времени до тех пор, пока не станет делать добрые дела. Действительно ли пират в состоянии сделать что-то хорошее?



Продолжительность: 01:46:59
Перевод: Профессиональный многоголосый, профессиональный двухголосый
Субтитры: Английские
Навигация по главам: Есть

Качество: HDRip-AVC
Видео: MPEG-4 AVC, 4011 Кбит/сек, 960x576, 23,976 кадра/сек
Аудио #1: AC3, 2 ch, 192 Кбит/сек | Русский, профессиональный (многоголосый закадровый) 5-й канал СПб
Аудио #2: AC3, 2 ch, 192 Кбит/сек | Русский, профессиональный (двухголосый закадровый) DVD-Магия
Аудио #3: AC3, 2 ch, 320 Кбит/сек | Английский, оригинал

Релиз от:


x264 [info]: frame I:1210 Avg QP:17.06 size:103944
x264 [info]: frame P:31719 Avg QP:19.91 size: 38880
x264 [info]: frame B:120978 Avg QP:22.02 size: 15367
-----------------------------------------------------
Общее
Уникальный идентификатор : 244974697176279200898722466755016639512 (0xB84C6915EE7B16A593A89B64E793C418)
Полное имя : Призрак.Черной.Бороды.1968.HDRip-AVC.KORSAR.mkv
Формат : Matroska
Версия формата : Version 2
Размер файла : 3,53 Гбайт
Продолжительность : 1 ч. 46 м.
Общий поток : 4717 Кбит/сек
Дата кодирования : UTC 2018-08-09 14:37:51
Программа кодирования : mkvmerge v5.8.0 ('No Sleep / Pillow') built on Sep 2 2012 15:37:04
Библиотека кодирования : libebml v1.2.3 + libmatroska v1.3.0

Видео
Идентификатор : 1
Формат : AVC
Формат/Информация : Advanced Video Codec
Профиль формата : High@L4.1
Настройки формата : CABAC / 14 Ref Frames
Параметр CABAC формата : Да
Параметр RefFrames формата : 14 кадров
Идентификатор кодека : V_MPEG4/ISO/AVC
Продолжительность : 1 ч. 46 м.
Битрейт : 4011 Кбит/сек
Ширина : 960 пикселей
Высота : 576 пикселей
Соотношение сторон : 5:3
Режим частоты кадров : Постоянный
Частота кадров : 23,976 (24000/1001) кадра/сек
Цветовое пространство : YUV
Субдискретизация насыщенности : 4:2:0
Битовая глубина : 8 бит
Тип развёртки : Прогрессивная
Бит/(Пиксели*Кадры) : 0.303
Размер потока : 2,93 Гбайт (83%)
Заголовок : RIP | MZMA
Библиотека кодирования : x264 core 152 r2851kMod ba24899
Настройки программы : cabac=1 / ref=14 / deblock=1:-2:-2 / analyse=0x3:0x113 / me=umh / subme=11 / psy=1 / fade_compensate=0.00 / psy_rd=1.00:0.00 / mixed_ref=1 / me_range=48 / chroma_me=1 / trellis=2 / 8x8dct=1 / cqm=0 / deadzone=21,11 / fast_pskip=0 / chroma_qp_offset=-2 / threads=6 / lookahead_threads=1 / sliced_threads=0 / nr=0 / decimate=0 / interlaced=0 / bluray_compat=0 / constrained_intra=0 / bframes=16 / b_pyramid=2 / b_adapt=2 / b_bias=0 / direct=3 / weightb=1 / open_gop=0 / weightp=2 / keyint=240 / keyint_min=23 / scenecut=40 / intra_refresh=0 / rc_lookahead=40 / rc=2pass / mbtree=0 / bitrate=4011 / ratetol=1.0 / qcomp=0.60 / qpmin=0 / qpmax=69 / qpstep=4 / cplxblur=20.0 / qblur=0.5 / vbv_maxrate=50000 / vbv_bufsize=62500 / nal_hrd=none / filler=0 / ip_ratio=1.40 / pb_ratio=1.30 / aq=3:0.90
Язык : English
По умолчанию : Да
Принудительно : Нет
Цветовой диапазон : Limited
Основные цвета : BT.709
Характеристики трансфера : BT.709
Коэффициенты матрицы : BT.709

Аудио #1
Идентификатор : 2
Формат : AC-3
Формат/Информация : Audio Coding 3
Идентификатор кодека : A_AC3
Продолжительность : 1 ч. 46 м.
Вид битрейта : Постоянный
Битрейт : 192 Кбит/сек
Каналы : 2 канала
Расположение каналов : Front: L R
Частота : 48,0 КГц
Частота кадров : 31,250 кадров/сек (1536 SPF)
Битовая глубина : 16 бит
Метод сжатия : С потерями
Размер потока : 147 Мбайт (4%)
Заголовок : MVO | 5 канал
Язык : Russian
По умолчанию : Да
Принудительно : Нет

Аудио #2
Идентификатор : 3
Формат : AC-3
Формат/Информация : Audio Coding 3
Идентификатор кодека : A_AC3
Продолжительность : 1 ч. 46 м.
Вид битрейта : Постоянный
Битрейт : 192 Кбит/сек
Каналы : 2 канала
Расположение каналов : Front: L R
Частота : 48,0 КГц
Частота кадров : 31,250 кадров/сек (1536 SPF)
Битовая глубина : 16 бит
Метод сжатия : С потерями
Размер потока : 147 Мбайт (4%)
Заголовок : DVO | DVD-Магия
Язык : Russian
По умолчанию : Нет
Принудительно : Нет

Аудио #3
Идентификатор : 4
Формат : AC-3
Формат/Информация : Audio Coding 3
Идентификатор кодека : A_AC3
Продолжительность : 1 ч. 46 м.
Вид битрейта : Постоянный
Битрейт : 320 Кбит/сек
Каналы : 2 канала
Расположение каналов : Front: L R
Частота : 48,0 КГц
Частота кадров : 31,250 кадров/сек (1536 SPF)
Битовая глубина : 16 бит
Метод сжатия : С потерями
Размер потока : 245 Мбайт (7%)
Заголовок : Original
Язык : English
По умолчанию : Нет
Принудительно : Нет

Текст #1
Идентификатор : 5
Формат : UTF-8
Идентификатор кодека : S_TEXT/UTF8
Идентификатор кодека/Информация : UTF-8 Plain Text
Язык : English
По умолчанию : Нет
Принудительно : Нет

Текст #2
Идентификатор : 6
Формат : UTF-8
Идентификатор кодека : S_TEXT/UTF8
Идентификатор кодека/Информация : UTF-8 Plain Text
Заголовок : SDH 1
Язык : English
По умолчанию : Нет
Принудительно : Нет

Текст #3
Идентификатор : 7
Формат : UTF-8
Идентификатор кодека : S_TEXT/UTF8
Идентификатор кодека/Информация : UTF-8 Plain Text
Заголовок : SDH 2
Язык : English
По умолчанию : Нет
Принудительно : Нет

Меню
00:00:00.000 : en:Opening Titles / New Track Coach
00:08:47.071 : en:Auction At Blackbeard's Inn
00:18:22.071 : en:Bed Warmer
00:29:32.071 : en:Newfound Shipmate
00:36:24.071 : en:Coach Walker's Problem
00:47:48.071 : en:Silky's Place
00:58:23.071 : en:$900 On Godolphin
01:06:31.071 : en:A Time For Action
01:13:11.071 : en:Principles
01:21:44.071 : en:Collecting From Mr. Seymour
01:29:52.071 : en:A Game Of Roulette
01:39:28.071 : en:Burning The Mortgage / End Credits

Аватара пользователя
mzma
Главный Модератор-Корсар
 
 

Награды: 69
За помощь проекту (3) Лучший по количеству кубков (6) За отличные раздачи и качество (38) За подробное оформление раздач (10) Верный Сид (10)
Раздачи группы KORSAR разрешено перезаливать спустя сутки после публикации
  • Торрент
Для скачивания торрента необходимо зарегистрироваться или войти на трекер.

Вернуться в Классика зарубежного кино (фильмы до 1980 года)



Uptime по данным Ping-Admin.Ru - сервиса мониторинга доступности сайтов
Рейтинг@Mail.ru