logo
Международный русскоязычный
торрент-трекер
Menu

Doublon
Поделиться с друзьями: 
Голосуй за Корсар и получи 100 дублонов
Рейтинг торрент трекеров - UpTracker.ru

Принцесса Мононоке / Mononoke Hime (1997, аниме, мультфильм, фэнтези, драма, приключения, BDRip-AVC)

Сообщение Pupok_88 » 12 янв 2018, 17:16

Название: Принцесса Мононоке
Оригинальное название: Mononoke Hime / Princess Mononoke
Год выхода: 1997
Жанр: Приключения, фэнтези, драма
Режиссер: Хаяо Миядзаки
В ролях: Едзи Мацуда, Юрико Исида, Юко Танака, Каору Кобаяси, Масахико Нисимура, Цунэхико Камидзо, Суми Симамото, Тэцу Ватанабэ, Макото Сато, Акира Нагоя, Акихиро Мива, Мицуко Мори, Хисая Морисигэ

Страна: Япония
Студия: Studio Ghibli
Продолжительность: 02:13:23
Перевод: Дублированный, профессиональный многоголосый, Профессиональный двухголосый, авторский одноголосый (А. Гаврилов), (С. Визгунов), (П. Гланц), (А. Толстобров), украинский, английский

Описание: Юный принц Ашитака, убив вепря, навлек на себя смертельное проклятие. Старая знахарка предсказала ему, что только он сам способен изменить свою судьбу. И отважный воин отправился в опасное путешествие. Так он оказался в загадочной стране, где люди под предводительством злой госпожи Эбоши воевали с обитателями леса: духами, демонами и гигантскими существами, каких Ашитака раньше никогда не видел.
И была с ними принцесса Мононоке — повелительница зверей и дочь волчицы. Теперь судьба всех зависит только от одного воина — принца Ашитаки…




Качество: BDRip-AVC
Формат: MKV
Видео: 2400 Кбит/с, 1024х552, 23.976 кадр/с
Аудио #1: Русский (AC3, 6 ch, 448 Кбит/с) / Дублированный (Реанимедиа)
Аудио #2: Русский (AC3, 6 ch, 384 Кбит/с) / Профессиональный многоголосый (Киномания)
Аудио #3: Русский (AC3, 2 ch, 192 Кбит/с) / Профессиональный многоголосый (ВестВидео)
Аудио #4: Русский (AC3, 6 ch, 384 Кбит/с) / Профессиональный двухголосый (Tycoon)
Аудио #5: Русский (AC3, 6 ch, 384 Кбит/с) / Авторский одноголосый (А. Гаврилов)
Аудио #6: Русский (AC3, 6 ch, 384 Кбит/с) / Авторский одноголосый (С. Визгунов)
Аудио #7: Русский (AC3, 2 ch, 192 Кбит/с) / Авторский одноголосый (П. Гланц)
Аудио #8: Русский (AC3, 6 ch, 448 Кбит/с) / Авторский одноголосый (А. Толстобров)
Аудио #9: Украинский (AC3, 6 ch, 448 Кбит/с) / Профессиональный многоголосый
Аудио #10: Английский (AC3, 6 ch, 448 Кбит/с) / Дублированный
Аудио #11: Японский (AC3,6 ch, 448 Кбит/с)
Субтитры: Русские (3 вида), украинские, английские

Общее
Уникальный идентификатор : 223160133157788725561665890171286537830 (0xA7E3140A6EFAE66FA4BCB95798394666)
Полное имя : F:3Films FРелизыPrincessa.Mononoke.1997.x264.BDRip.AVC.MediaClub.mkv
Формат : Matroska
Версия формата : Version 4 / Version 2
Размер файла : 6,12 Гбайт
Продолжительность : 2 ч. 13 м.
Общий поток : 6553 Кбит/сек
Название фильма : -= MediaClub =- rip by Lefevr
Дата кодирования : UTC 2014-05-13 13:03:10
Программа кодирования : mkvmerge v6.6.0 ('The Edge Of The In Between') built on Dec 1 2013 17:55:00
Библиотека кодирования : libebml v1.3.0 + libmatroska v1.4.1

Видео
Идентификатор : 1
Формат : AVC
Формат/Информация : Advanced Video Codec
Профиль формата : High@L4.1
Параметр CABAC формата : Да
Параметр ReFrames формата : 9 кадров
Идентификатор кодека : V_MPEG4/ISO/AVC
Продолжительность : 2 ч. 13 м.
Битрейт : 2262 Кбит/сек
Номинальный битрейт : 2400 Кбит/сек
Ширина : 1024 пикселя
Высота : 552 пикселя
Соотношение сторон : 1,85:1
Режим частоты кадров : Постоянный
Частота кадров : 23,976 кадра/сек
Цветовое пространство : YUV
Субдискретизация насыщенности : 4:2:0
Битовая глубина : 8 бит
Тип развёртки : Прогрессивная
Бит/(Пиксели*Кадры) : 0.167
Размер потока : 2,11 Гбайт (35%)
Заголовок : Princessa.Mononoke.1997.x264.BDRip.AVC.MediaClub
Библиотека кодирования : x264 core 142 r2409+42 04be48a tMod [8-bit@4:2:0 X86]
Настройки программы : cabac=1 / ref=9 / deblock=1:-2:-2 / analyse=0x3:0x133 / me=umh / subme=11 / psy=1 / fade_compensate=0.00 / psy_rd=0.80:0.00 / mixed_ref=1 / me_range=32 / chroma_me=1 / trellis=2 / 8x8dct=1 / cqm=0 / deadzone=21,11 / fast_pskip=0 / chroma_qp_offset=-2 / threads=6 / lookahead_threads=1 / sliced_threads=0 / nr=0 / decimate=0 / interlaced=0 / bluray_compat=0 / constrained_intra=0 / fgo=0 / bframes=8 / b_pyramid=2 / b_adapt=2 / b_bias=0 / direct=3 / weightb=1 / open_gop=0 / weightp=2 / keyint=240 / keyint_min=23 / scenecut=40 / intra_refresh=0 / rc_lookahead=60 / rc=2pass / mbtree=1 / bitrate=2400 / ratetol=1.0 / qcomp=0.60 / qpmin=0:0:0 / qpmax=69:69:69 / qpstep=4 / cplxblur=20.0 / qblur=0.5 / ip_ratio=1.40 / aq=1:1.00 / aq-sensitivity=10.00 / aq-factor=1.00:1.00:1.00 / aq2=0 / aq3=0
Язык : English
Default : Да
Forced : Нет

Аудио #1
Идентификатор : 2
Формат : AC-3
Формат/Информация : Audio Coding 3
Расширение режима : CM (complete main)
Параметр Endianness формата : Big
Идентификатор кодека : A_AC3
Продолжительность : 2 ч. 13 м.
Вид битрейта : Постоянный
Битрейт : 448 Кбит/сек
Каналы : 6 каналов
Расположение каналов : Front: L C R, Side: L R, LFE
Частота : 48,0 КГц
Битовая глубина : 16 бит
Метод сжатия : С потерями
Размер потока : 428 Мбайт (7%)
Заголовок : TRACK_01_DUB_RUS_ReaniMedia
Язык : Russian
Default : Да
Forced : Да

Аудио #2
Идентификатор : 3
Формат : AC-3
Формат/Информация : Audio Coding 3
Расширение режима : CM (complete main)
Параметр Endianness формата : Big
Идентификатор кодека : A_AC3
Продолжительность : 2 ч. 13 м.
Вид битрейта : Постоянный
Битрейт : 384 Кбит/сек
Каналы : 6 каналов
Расположение каналов : Front: L C R, Side: L R, LFE
Частота : 48,0 КГц
Битовая глубина : 16 бит
Метод сжатия : С потерями
Размер потока : 367 Мбайт (6%)
Заголовок : TRACK_02_MVO_RUS_Kinomanija
Язык : Russian
Default : Нет
Forced : Нет

Аудио #3
Идентификатор : 4
Формат : AC-3
Формат/Информация : Audio Coding 3
Расширение режима : CM (complete main)
Параметр Endianness формата : Big
Идентификатор кодека : A_AC3
Продолжительность : 2 ч. 13 м.
Вид битрейта : Постоянный
Битрейт : 192 Кбит/сек
Каналы : 2 канала
Расположение каналов : Front: L R
Частота : 48,0 КГц
Битовая глубина : 16 бит
Метод сжатия : С потерями
Размер потока : 184 Мбайт (3%)
Заголовок : TRACK_03_MVO_RUS_VestVideo
Язык : Russian
Default : Нет
Forced : Нет

Аудио #4
Идентификатор : 5
Формат : AC-3
Формат/Информация : Audio Coding 3
Расширение режима : CM (complete main)
Параметр Endianness формата : Big
Идентификатор кодека : A_AC3
Продолжительность : 2 ч. 13 м.
Вид битрейта : Постоянный
Битрейт : 384 Кбит/сек
Каналы : 6 каналов
Расположение каналов : Front: L C R, Side: L R, LFE
Частота : 48,0 КГц
Битовая глубина : 16 бит
Метод сжатия : С потерями
Размер потока : 367 Мбайт (6%)
Заголовок : TRACK_04_DVO_RUS_Tycoon
Язык : Russian
Default : Нет
Forced : Нет

Аудио #5
Идентификатор : 6
Формат : AC-3
Формат/Информация : Audio Coding 3
Расширение режима : CM (complete main)
Параметр Endianness формата : Big
Идентификатор кодека : A_AC3
Продолжительность : 2 ч. 13 м.
Вид битрейта : Постоянный
Битрейт : 384 Кбит/сек
Каналы : 6 каналов
Расположение каналов : Front: L C R, Side: L R, LFE
Частота : 48,0 КГц
Битовая глубина : 16 бит
Метод сжатия : С потерями
Размер потока : 367 Мбайт (6%)
Заголовок : TRACK_05_AVO_RUS_Gavrilov
Язык : Russian
Default : Нет
Forced : Нет

Аудио #6
Идентификатор : 7
Формат : AC-3
Формат/Информация : Audio Coding 3
Расширение режима : CM (complete main)
Параметр Endianness формата : Big
Идентификатор кодека : A_AC3
Продолжительность : 2 ч. 13 м.
Вид битрейта : Постоянный
Битрейт : 384 Кбит/сек
Каналы : 6 каналов
Расположение каналов : Front: L C R, Side: L R, LFE
Частота : 48,0 КГц
Битовая глубина : 16 бит
Метод сжатия : С потерями
Размер потока : 367 Мбайт (6%)
Заголовок : TRACK_06_AVO_RUS_Vizgunov
Язык : Russian
Default : Нет
Forced : Нет

Аудио #7
Идентификатор : 8
Формат : AC-3
Формат/Информация : Audio Coding 3
Расширение режима : CM (complete main)
Параметр Endianness формата : Big
Идентификатор кодека : A_AC3
Продолжительность : 2 ч. 13 м.
Вид битрейта : Постоянный
Битрейт : 192 Кбит/сек
Каналы : 2 канала
Расположение каналов : Front: L R
Частота : 48,0 КГц
Битовая глубина : 16 бит
Метод сжатия : С потерями
Размер потока : 184 Мбайт (3%)
Заголовок : TRACK_07_AVO_RUS_Glanc
Язык : Russian
Default : Нет
Forced : Нет

Аудио #8
Идентификатор : 9
Формат : AC-3
Формат/Информация : Audio Coding 3
Расширение режима : CM (complete main)
Параметр Endianness формата : Big
Идентификатор кодека : A_AC3
Продолжительность : 2 ч. 13 м.
Вид битрейта : Постоянный
Битрейт : 448 Кбит/сек
Каналы : 6 каналов
Расположение каналов : Front: L C R, Side: L R, LFE
Частота : 48,0 КГц
Битовая глубина : 16 бит
Метод сжатия : С потерями
Размер потока : 428 Мбайт (7%)
Заголовок : TRACK_08_AVO_RUS_Tolstobrov
Язык : Russian
Default : Нет
Forced : Нет

Аудио #9
Идентификатор : 10
Формат : AC-3
Формат/Информация : Audio Coding 3
Расширение режима : CM (complete main)
Параметр Endianness формата : Big
Идентификатор кодека : A_AC3
Продолжительность : 2 ч. 13 м.
Вид битрейта : Постоянный
Битрейт : 448 Кбит/сек
Каналы : 6 каналов
Расположение каналов : Front: L C R, Side: L R, LFE
Частота : 48,0 КГц
Битовая глубина : 16 бит
Метод сжатия : С потерями
Размер потока : 428 Мбайт (7%)
Заголовок : TRACK_09_MVO_UKR
Язык : Ukrainian
Default : Нет
Forced : Нет

Аудио #10
Идентификатор : 11
Формат : AC-3
Формат/Информация : Audio Coding 3
Расширение режима : CM (complete main)
Параметр Endianness формата : Big
Идентификатор кодека : A_AC3
Продолжительность : 2 ч. 13 м.
Вид битрейта : Постоянный
Битрейт : 448 Кбит/сек
Каналы : 6 каналов
Расположение каналов : Front: L C R, Side: L R, LFE
Частота : 48,0 КГц
Битовая глубина : 16 бит
Метод сжатия : С потерями
Размер потока : 428 Мбайт (7%)
Заголовок : TRACK_10_DUB_ENG
Язык : English
Default : Нет
Forced : Нет

Аудио #11
Идентификатор : 12
Формат : AC-3
Формат/Информация : Audio Coding 3
Расширение режима : CM (complete main)
Параметр Endianness формата : Big
Идентификатор кодека : A_AC3
Продолжительность : 2 ч. 13 м.
Вид битрейта : Постоянный
Битрейт : 448 Кбит/сек
Каналы : 6 каналов
Расположение каналов : Front: L C R, Side: L R, LFE
Частота : 48,0 КГц
Битовая глубина : 16 бит
Метод сжатия : С потерями
Размер потока : 428 Мбайт (7%)
Заголовок : TRACK_11_ORIGINAL_JPN
Язык : Japanese
Default : Нет
Forced : Нет

Текст #1
Идентификатор : 13
Формат : UTF-8
Идентификатор кодека : S_TEXT/UTF8
Идентификатор кодека/Информация : UTF-8 Plain Text
Заголовок : TEXT_01_SUB_RUS_RUSCICO
Язык : Russian
Default : Нет
Forced : Нет

Текст #2
Идентификатор : 14
Формат : UTF-8
Идентификатор кодека : S_TEXT/UTF8
Идентификатор кодека/Информация : UTF-8 Plain Text
Заголовок : TEXT_02_SUB_RUS_Kinomanija
Язык : Russian
Default : Нет
Forced : Нет

Текст #3
Идентификатор : 15
Формат : UTF-8
Идентификатор кодека : S_TEXT/UTF8
Идентификатор кодека/Информация : UTF-8 Plain Text
Заголовок : TEXT_03_SUB_RUS_Tycoon
Язык : Russian
Default : Нет
Forced : Нет

Текст #4
Идентификатор : 16
Формат : ASS
Идентификатор кодека : S_TEXT/ASS
Идентификатор кодека/Информация : Advanced Sub Station Alpha
Метод сжатия : Без потерь
Заголовок : TEXT_04_SUB_UKR
Язык : Ukrainian
Default : Нет
Forced : Нет

Текст #5
Идентификатор : 17
Формат : UTF-8
Идентификатор кодека : S_TEXT/UTF8
Идентификатор кодека/Информация : UTF-8 Plain Text
Заголовок : TEXT_05_SUB_ENG
Язык : English
Default : Нет
Forced : Нет

Меню
00:00:00.000 : en:Chapter 1
00:01:09.194 : en:Chapter 2
00:07:31.033 : en:Chapter 3
00:12:27.246 : en:Chapter 4
00:18:47.376 : en:Chapter 5
00:23:12.933 : en:Chapter 6
00:28:48.852 : en:Chapter 7
00:32:54.347 : en:Chapter 8
00:38:44.780 : en:Chapter 9
00:44:17.112 : en:Chapter 10
00:49:39.184 : en:Chapter 11
00:54:40.694 : en:Chapter 12
00:59:35.863 : en:Chapter 13
01:05:06.318 : en:Chapter 14
01:07:44.351 : en:Chapter 15
01:12:41.982 : en:Chapter 16
01:17:24.431 : en:Chapter 17
01:22:26.566 : en:Chapter 18
01:27:24.280 : en:Chapter 19
01:33:21.429 : en:Chapter 20
01:38:19.143 : en:Chapter 21
01:43:08.306 : en:Chapter 22
01:48:14.487 : en:Chapter 23
01:52:27.240 : en:Chapter 24
01:57:30.209 : en:Chapter 25
02:02:37.224 : en:Chapter 26
02:05:21.305 : en:Chapter 27
02:08:31.203 : en:Chapter 28
02:13:21.910 : en:Chapter 29

Аватара пользователя
Pupok_88
Главный Модератор-Корсар
 
 

Награды: 16
Лучший по количеству кубков (3) За отличные раздачи и качество (6) Верный Сид (5) 1 место в конкурсах (1)
  • Торрент
Для скачивания торрента необходимо зарегистрироваться или войти на трекер.

Вернуться в Аниме



Uptime по данным Ping-Admin.Ru - сервиса мониторинга доступности сайтов
Рейтинг@Mail.ru