logo
Международный русскоязычный
торрент-трекер
Menu
Магазин-KorsaRDoublon
Поделиться с друзьями: 
Голосуй за Корсар и получай дублоны
Рейтинг торрент трекеров - UpTracker.ru

Принцесса Мононоке / Mononoke-hime (1997, аниме, мультфильм, фэнтези, драма, приключения, BDRip 720p)

Сообщение Korsar » 22 окт 2016, 20:01



Информация о фильме
Название: Принцесса Мононоке
Оригинальное название: Mononoke-hime
Год выхода: 1997
Жанр: аниме, мультфильм, фэнтези, драма, приключения
Режиссер: Хаяо Миядзаки
В ролях: Юрико Ишида, Билли Крудап, Билли Боб Торнтон, Минни Драйвер, Джон Ди Маджио, Клэр Дэйнс, Джон ДеМита, Джада Пинкетт Смит, Джиллиан Андерсон, Кит Дэвид

О фильме: Юный принц Ашитака, убив вепря, навлек на себя смертельное проклятие. Старая знахарка предсказала ему, что только он сам способен изменить свою судьбу. И отважный воин отправился в опасное путешествие. Так он оказался в загадочной стране, где люди под предводительством злой госпожи Эбоши воевали с обитателями леса: духами, демонами и гигантскими существами, каких Ашитака раньше никогда не видел.

И была с ними принцесса Мононоке — повелительница зверей и дочь волчицы. Теперь судьба всех зависит только от одного воина — принца Ашитаки…



Выпущено: Studio Ghibli
Продолжительность: 02:13:23
Перевод: Дублированный

Файл
Кодек: x264
Качество: BDRip (источник: Blu-ray Disc)
Видео: 1280x690 (1,85:1), 23.976 fps, 3800 kbps
Аудио #1: AC-3, 6 ch, 448 kbps (Rus)
Аудио #2: AC-3, 6 ch, 448 kbps (Jpn)
Субтитры: Русские
Скачать: сэмпл



Общее
Уникальный идентификатор : 218886943857430614779475915795892542941 (0xA4AC178AC249A2619DC5F54E3C381DDD)
Полное имя : Princess.Mononoke.1997.BDRip.720p.Rus.Jpn.mkv
Формат : Matroska
Версия формата : Version 2
Размер файла : 4,37 Гбайт
Продолжительность : 2 ч. 13 м.
Общий поток : 4694 Кбит/сек
Название фильма : Принцесса Мононоке / Mononoke-hime (1997)
Дата кодирования : UTC 2013-12-13 17:21:16
Программа кодирования : mkvmerge v5.8.0 ('No Sleep / Pillow') built on Sep 2 2012 15:37:04
Библиотека кодирования : libebml v1.2.3 + libmatroska v1.3.0

Видео
Идентификатор : 1
Формат : AVC
Формат/Информация : Advanced Video Codec
Профиль формата : High@L4.1
Параметр CABAC формата : Да
Параметр ReFrames формата : 9 кадров
Идентификатор кодека : V_MPEG4/ISO/AVC
Продолжительность : 2 ч. 13 м.
Битрейт : 3797 Кбит/сек
Ширина : 1280 пикселей
Высота : 690 пикселей
Соотношение сторон : 1,855
Частота кадров : 23,976 кадра/сек
Цветовое пространство : YUV
Субдискретизация насыщенности : 4:2:0
Битовая глубина : 8 бит
Тип развёртки : Прогрессивная
Бит/(Пиксели*Кадры) : 0.179
Размер потока : 3,45 Гбайт (79%)
Заголовок : Release by AlexKa
Библиотека кодирования : x264 core 140 r2377 1ca7bb9
Настройки программы : cabac=1 / ref=9 / deblock=1:0:0 / analyse=0x3:0x133 / me=umh / subme=11 / psy=1 / psy_rd=1.00:0.00 / mixed_ref=1 / me_range=32 / chroma_me=1 / trellis=2 / 8x8dct=1 / cqm=0 / deadzone=21,11 / fast_pskip=0 / chroma_qp_offset=-2 / threads=12 / lookahead_threads=2 / sliced_threads=0 / nr=0 / decimate=1 / interlaced=0 / bluray_compat=0 / constrained_intra=0 / bframes=7 / b_pyramid=2 / b_adapt=2 / b_bias=0 / direct=3 / weightb=1 / open_gop=0 / weightp=2 / keyint=240 / keyint_min=23 / scenecut=40 / intra_refresh=0 / rc=2pass / mbtree=0 / bitrate=3797 / ratetol=1.0 / qcomp=0.60 / qpmin=0 / qpmax=69 / qpstep=4 / cplxblur=20.0 / qblur=0.5 / ip_ratio=1.40 / pb_ratio=1.30 / aq=1:1.00
Язык : Japanese

Аудио #1
Идентификатор : 2
Формат : AC-3
Формат/Информация : Audio Coding 3
Расширение режима : CM (complete main)
Идентификатор кодека : A_AC3
Продолжительность : 2 ч. 13 м.
Вид битрейта : Постоянный
Битрейт : 448 Кбит/сек
Каналы : 6 каналов
Расположение каналов : Front: L C R, Side: L R, LFE
Частота : 48,0 КГц
Битовая глубина : 16 бит
Метод сжатия : С потерями
Размер потока : 427 Мбайт (10%)
Заголовок : Rus
Язык : Russian

Аудио #2
Идентификатор : 3
Формат : AC-3
Формат/Информация : Audio Coding 3
Расширение режима : CM (complete main)
Идентификатор кодека : A_AC3
Продолжительность : 2 ч. 13 м.
Вид битрейта : Постоянный
Битрейт : 448 Кбит/сек
Каналы : 6 каналов
Расположение каналов : Front: L C R, Side: L R, LFE
Частота : 48,0 КГц
Битовая глубина : 16 бит
Метод сжатия : С потерями
Размер потока : 427 Мбайт (10%)
Заголовок : Jpn
Язык : Japanese

Текст
Идентификатор : 4
Формат : UTF-8
Идентификатор кодека : S_TEXT/UTF8
Идентификатор кодека/Информация : UTF-8 Plain Text
Заголовок : Rus
Язык : Russian

Меню
00:00:00.000 : :Chapter 01
00:01:09.194 : :Chapter 02
00:07:31.033 : :Chapter 03
00:12:27.246 : :Chapter 04
00:18:47.376 : :Chapter 05
00:23:12.933 : :Chapter 06
00:28:48.852 : :Chapter 07
00:32:54.347 : :Chapter 08
00:38:44.780 : :Chapter 09
00:44:17.112 : :Chapter 10
00:49:39.184 : :Chapter 11
00:54:40.694 : :Chapter 12
00:59:35.863 : :Chapter 13
01:05:06.318 : :Chapter 14
01:07:44.351 : :Chapter 15
01:12:41.982 : :Chapter 16
01:17:24.431 : :Chapter 17
01:22:26.566 : :Chapter 18
01:27:24.280 : :Chapter 19
01:33:21.429 : :Chapter 20
01:38:19.143 : :Chapter 21
01:43:08.306 : :Chapter 22
01:48:14.487 : :Chapter 23
01:52:27.240 : :Chapter 24
01:57:30.209 : :Chapter 25
02:02:37.224 : :Chapter 26
02:05:21.305 : :Chapter 27
02:08:31.203 : :Chapter 28
02:13:21.910 : :Chapter 29
x264 [info]: frame I:1591 Avg QP:14.72 size:156868
x264 [info]: frame P:41865 Avg QP:17.25 size: 44624
x264 [info]: frame B:148421 Avg QP:18.86 size: 11317
x264 [info]: consecutive B-frames: 2.3% 2.5% 8.4% 18.5% 16.3% 42.1% 8.3% 1.6%

AlexKa писал:
Несколько часов потратил на русскую дорожку.
В ремуксе дорожка оказалась стрёмного качества, сделал свою.
Звучит намного лучше.

Боцман
Аватара пользователя
Korsar
Помощник Администратора-Корсар
 
 

Награды: 14
За отличные раздачи и качество (7) Почётный форумчанин (1) За участие в конкурсах (1) Верный Сид (5)
  • Торрент
Для скачивания торрента необходимо зарегистрироваться или войти на трекер.

Вернуться в Аниме



Uptime по данным Ping-Admin.Ru - сервиса мониторинга доступности сайтов