logo
Международный русскоязычный
торрент-трекер
Menu

Doublon
Поделиться с друзьями: 
Голосуй за Корсар и получи 150 дублонов
Рейтинг торрент трекеров - UpTracker.ru

Приключения принца Флоризеля / Клуб самоубийц или приключения титулованной особы (1979, Приключения, комедия, криминал, экранизация, HDTVRip 720p) - KORSAR

Сообщение filbi1976 » 30 дек 2016, 02:19

Оригинальное название: Приключения принца Флоризеля (Клуб самоубийц или приключения титулованной особы)
Год выпуска: 1979
Жанр: Приключения, комедия, криминал, экранизация
Выпущено: СССР, Ленфильм
Режиссер: Евгений Татарский
В ролях: Олег Даль, Донатас Банионис, Игорь Дмитриев, Любовь Полищук, Виталий Ильин, Игорь Янковский, Елена Цыплакова, Михаил Пуговкин, Владимир Басов, Гелий Сысоев, Борис Новиков, Вячеслав Васильев, Любовь Малиновская, Валентин Голубенко, Владимир Лосев, Илья Резник, Галина Самохина, Николай Кузьмин, Асхаб Абакаров, Елена Соловей, Иван Мокеев, Владимир Шевельков, Валерий Миронов, Валерий Матвеев, Евгений Киндинов, Анатолий Подшивалов

О фильме: Иронический детектив по мотивам рассказов английского писателя Роберта Льюиса Стивенсона "Клуб самоубийц" и "Алмаз раджи". Утомленный скукой авантюрист и любитель приключений принц Флоризель вместе со своим другом полковником Джеральдином оказывается в клубе самоубийц. Занимаясь расследованием преступлений, он выходит на след самого опасного преступника Европы. Так начинаются невероятно смешные и опасные приключения титулованной особы...

Качество: HDTVRip 720p
Видео: MPEG-4 AVC, 964x720, ~ 3700 Кбит/с
Аудио: АС3, 6 ch, 448 Кбит/с, АС3, 1 ch, 224 Кбит/с
Продолжительность: 3 x ~ 01:03:20
Язык: Русский

  • x264 [info]: frame I:586 Avg QP:17.34 size: 98962
  • x264 [info]: frame P:22931 Avg QP:19.44 size: 45339
  • x264 [info]: frame B:71982 Avg QP:21.60 size: 9301
=============================================================================
Общее
Уникальный идентификатор : 240428613333460286903987471620268747726 (0xB4E0DDD8E25EB79AA29EDAD16C61EBCE)
Полное имя : D:\Принц-1.mkv
Формат : Matroska
Версия формата : Version 2
Размер файла : 1,95 Гбайт
Продолжительность : 1 ч. 3 м.
Общий поток : 4375 Кбит/сек
Дата кодирования : UTC 2016-12-29 22:52:36
Программа кодирования : mkvmerge v5.8.0 ('No Sleep / Pillow') built on Sep 2 2012 15:37:04
Библиотека кодирования : libebml v1.2.3 + libmatroska v1.3.0

Видео
Идентификатор : 1
Формат : AVC
Формат/Информация : Advanced Video Codec
Профиль формата : High@L4.1
Параметр CABAC формата : Да
Параметр ReFrames формата : 11 кадров
Идентификатор кодека : V_MPEG4/ISO/AVC
Продолжительность : 1 ч. 3 м.
Битрейт : 3700 Кбит/сек
Ширина : 964 пикселя
Высота : 720 пикселей
Соотношение сторон : 4:3
Режим частоты кадров : Постоянный
Частота кадров : 25,000 кадров/сек
Цветовое пространство : YUV
Субдискретизация насыщенности : 4:2:0
Битовая глубина : 8 бит
Тип развёртки : Прогрессивная
Бит/(Пиксели*Кадры) : 0.213
Размер потока : 1,61 Гбайт (83%)
Заголовок : korsar.tv
Библиотека кодирования : x264 core 148 r2744kMod b97ae06
Настройки программы : cabac=1 / ref=11 / deblock=1:-2:-2 / analyse=0x3:0x133 / me=umh / subme=10 / psy=1 / fade_compensate=0.00 / psy_rd=0.90:0.05 / mixed_ref=1 / me_range=32 / chroma_me=1 / trellis=2 / 8x8dct=1 / cqm=0 / deadzone=21,11 / fast_pskip=0 / chroma_qp_offset=-3 / threads=12 / lookahead_threads=2 / sliced_threads=0 / nr=0 / decimate=0 / interlaced=0 / bluray_compat=0 / constrained_intra=0 / bframes=9 / b_pyramid=2 / b_adapt=2 / b_bias=0 / direct=3 / weightb=1 / open_gop=0 / weightp=2 / keyint=250 / keyint_min=25 / scenecut=40 / intra_refresh=0 / rc=2pass / mbtree=0 / bitrate=3700 / ratetol=1.0 / qcomp=0.63 / qpmin=0 / qpmax=39 / qpstep=4 / cplxblur=20.0 / qblur=0.5 / ip_ratio=1.20 / pb_ratio=1.30 / aq=2:0.70
Язык : English
Default : Да
Forced : Нет
Цветовой диапазон : Limited
Основные цвета : BT.601 PAL
Характеристики трансфера : BT.470 System B, BT.470 System G
Коэффициенты матрицы : BT.601

Аудио #1
Идентификатор : 2
Формат : AC-3
Формат/Информация : Audio Coding 3
Расширение режима : CM (complete main)
Параметр Endianness формата : Big
Идентификатор кодека : A_AC3
Продолжительность : 1 ч. 3 м.
Вид битрейта : Постоянный
Битрейт : 448 Кбит/сек
Каналы : 6 каналов
Расположение каналов : Front: L C R, Side: L R, LFE
Частота : 48,0 КГц
Частота кадров : 31,250 кадров/сек (1536 spf)
Битовая глубина : 16 бит
Метод сжатия : С потерями
Задержка видео : 703 мс.
Размер потока : 204 Мбайт (10%)
Язык : Russian
Default : Да
Forced : Нет

Аудио #2
Идентификатор : 3
Формат : AC-3
Формат/Информация : Audio Coding 3
Расширение режима : CM (complete main)
Параметр Endianness формата : Big
Идентификатор кодека : A_AC3
Продолжительность : 1 ч. 3 м.
Вид битрейта : Постоянный
Битрейт : 224 Кбит/сек
Каналы : 1 канал
Расположение каналов : Front: C
Частота : 48,0 КГц
Частота кадров : 31,250 кадров/сек (1536 spf)
Битовая глубина : 16 бит
Метод сжатия : С потерями
Задержка видео : 703 мс.
Размер потока : 102 Мбайт (5%)
Язык : Russian
Default : Нет
Forced : Нет

Меню
00:00:00.000 : en:Chapter 1
00:09:52.200 : en:Chapter 2
00:17:58.800 : en:Chapter 3
00:24:29.400 : en:Chapter 4
00:33:46.200 : en:Chapter 5
00:38:50.400 : en:Chapter 6
00:43:26.400 : en:Chapter 7
00:49:01.800 : en:Chapter 8
00:54:45.000 : en:Chapter 9


Аватара пользователя
filbi1976
Администратор-Корсар
 
 

Награды: 51
За помощь проекту (1) За отличные раздачи и качество (37) Верный Сид (10) За участие в конкурсах/играх (1)
Раздачи группы KORSAR разрешено перезаливать спустя сутки после публикации
  • Торрент
Для скачивания торрента необходимо зарегистрироваться или войти на трекер.

Сообщение filbi1976 » 30 дек 2016, 02:24

Всех с наступающим Новым годом! :hi:
Аватара пользователя
filbi1976
Администратор-Корсар
 
 

Награды: 51
За помощь проекту (1) За отличные раздачи и качество (37) Верный Сид (10) За участие в конкурсах/играх (1)

Сообщение 1WANT » 30 дек 2016, 02:37

Спасибо, Сергей! :hi:

С наступающим Новым Годом! :drinks:
Многая знания дают многая беды...
Аватара пользователя
1WANT
Заслуженный Корсар-Вип
 
 

Награды: 10
За помощь проекту (3) За отличные комментарии (1) Верный Сид (6)

Сообщение Bulfrogg » 30 дек 2016, 08:20

К Новому году целый поток прекрасных фильмов.
Спасибо Сергей за твою работу и заботу о нас :)
Всех с наступающим Новым годом !! :drinks:
Аватара пользователя
Bulfrogg
Заслуженный Корсар-Вип
 
 

Награды: 26
За помощь проекту (13) Лучший по количеству кубков (2) За отличные комментарии (1) Верный Сид (10)

Сообщение verybigpapa » 30 дек 2016, 08:27

Огромное спасибо, уважаемый filbi1976, за этот подарок! :hi:
Улыбайтесь, господа! Улыбайтесь!
Аватара пользователя
verybigpapa
Заслуженный Корсар-Вип
 
 

Награды: 35
За помощь проекту (13) Лучший по количеству кубков (9) За отличные комментарии (5) Верный Сид (8)

Сообщение mister.hats » 30 дек 2016, 12:54

Спасибо Сереж :hi:
Я поначалу подумал,что ты его уже делал раньше. :crazy:

Тот кто не с нами, тот против нас
Аватара пользователя
mister.hats
Заслуженный Корсар-Вип
 
 

Награды: 45
За помощь проекту (6) Лучший по количеству кубков (10) За отличные раздачи и качество (19) За подробное оформление раздач (1) За отличные комментарии (1) Верный Сид (8)

Сообщение kwazar312 » 30 дек 2016, 13:24

Спасибо за хороший фильм с отличными актерами.
Всех с наступающим Новым Годом,успехов в следующем году,ну а счастья и здоровья.
Уважаемый filbi1976,особое спасибо ВАМ за ту радость,которую ВЫ приносете ВАШИМИ работами с фильмами вот уже в течение нескольких лет.
Аватара пользователя
kwazar312
Заслуженный Корсар-Вип
 
 

Награды: 55
За помощь проекту (6) Лучший по количеству кубков (14) За отличные комментарии (8) Верный Сид (22) За участие в конкурсах/играх (5)

Сообщение Digor » 30 дек 2016, 17:06

здорово, спасибо огромное, Сергей!

ВСЕХ С НАСТУПАЮЩИМ НОВЫМ ГОДОМ!
СЧАСТЬЯ, ЗДОРОВЬЯ, ИСПОЛНЕНИЯ ВСЕХ ЖЕЛАНИЙ!
:hi: :drinks:
Аватара пользователя
Digor
Главный Модератор-Корсар
 
 

Награды: 15
За помощь проекту (6) Лучший по количеству кубков (1) Верный Сид (6)

Сообщение bagrad » 30 дек 2016, 19:59

Спасибо огромное Сергей!!! :hi: Отличный фильм, да ещё в качестве!!! :drinks:

Поздравляю всех с наступающим Новым Годом!
Желаю здоровья и долгих счастливых лет жизни!
:hi:
Dum spíro, spéro!
Аватара пользователя
bagrad
Заслуженный Корсар-Вип
 
 

Награды: 19
За помощь проекту (2) Лучший по количеству кубков (9) За отличные комментарии (1) Верный Сид (7)


Вернуться в Кино времён СССР (HD Video)



Uptime по данным Ping-Admin.Ru - сервиса мониторинга доступности сайтов
Рейтинг@Mail.ru