logo
Международный русскоязычный
торрент-трекер
Menu

Doublon
Поделиться с друзьями: 
Голосуй за Корсар и получи 400 дублонов
Рейтинг торрент трекеров - UpTracker.ru

Прыжок из космоса / Space Dive - The Red Bull Stratos Story (2012, документальный, Blu-ray 1080p)

Сообщение Korsar » 09 дек 2016, 02:15


Прыжок из космоса
Space Dive


Страна: Великобритания
Жанр: документальный
Год выпуска: 2012
Продолжительность: 01:27:47
Перевод: Профессиональный (двухголосый)
Cубтитры:Немецкие
Оригинальная аудиодорожка: английский

Режиссер: Колин Барр / Colin Barr
В ролях:
Шон Дули (рассказчик, (voice: UK version)), Лив Шрайбер (рассказчик, (voice: US version)), Феликс Баумгартнер (играет самого себя)

Описание: Воскресенье, 14 октября 2012 года... В этот день австрийский парашютист-экстремал Феликс Баумгартнер поднимается на высоту почти 39 километров чтобы совершить нечто невероятное - прыгнуть с парашютом. И он сделал это! Баумгартнер побил одновременно 3 мировых рекорда: самый высокий полёт на стратостате, самый высотный прыжок с парашютом и самое быстрое свободное падение. Он стал первым в истории парашютистом, который преодолел звуковой барьер. Как шла подготовка к этому прыжку? Как проходил свободный полет космического дайвера? Каким последствиям подвергся бы его организм в случае разгерметизации скафандра? И что в итоге произошло с капсулой и баллоном после завершения миссии? Ответы на эти и другие вопросы вы найдете в этом фильме.

Тип релиза: Blu-ray 1080p
Контейнер: BDMV
Video: MPEG-4 AVC Video / 27996 kbps / 1080i / 25 fps / 16:9 / High Profile 4.1
Audio: German / DTS-HD Master Audio / 5.1 / 48 kHz / 3997 kbps / 24-bit (DTS Core: 5.1 / 48 kHz / 1509 kbps / 24-bit)
Audio: English / Dolby Digital Audio / 2.0 / 48 kHz / 192 kbps
Audio: Russian / Dolby Digital Audio / 2.0 / 48 kHz / 192 kbps
Subtitle: German / 20,174 kbps
За русскую и английскую аудиодорожки большое спасибо nyctalus.
Sprung animation (CG)
Portrait
Technologie
Trailer
Music video
Диск пересобран из оригинального блурэя, используемое програмное обеспечение: BD Reauthor от DVDLogic Software (http://www.dvd-logic.com) и Sonic Scenarist BD, Adobe Photoshop, SubRip, SubtitleWorkshop, Sony Sound Forge, Eac3to, DTS-HD Suite. Структура диска полностью сохранена.
Воспроизведение проверено на Arcsoft Total Media Player 5, Arcsoft Total Media Player 3, Power DVD10, Scenarist QC 1.5, Dune BD-Prime 3.0 и бытовом блурей плеере LG BX-580. (Содержимое папки "AACS" перенесено в "ANY!")

Disc Title: REDBULL_STRATOS_RUS
Disc Size: 37 269 831 689 bytes
Protection: AACS
BD-Java: No
BDInfo: 0.5.2

Notes:

BDINFO HOME AND REPORTS SUBMISSION:
Cinema Squid
http://www.cinemasquid.com/Tools.aspx

INCLUDES FORUMS REPORT FOR:
Unofficial Blu-ray Audio and Video Specifications Thread
http://www.avsforum.com/avs-vb/showthread.php?t=760714
http://forum.blu-ray.com/showthread.php?t=3338

********************
PLAYLIST: 00013.MPLS
********************

<--- BEGIN FORUMS PASTE --->Код:
Код: Выделить всё
Total   Video
Title                                                           Codec   Length  Movie Size      Disc Size       Bitrate Bitrate Main Audio Track                          Secondary Audio Track
-----                                                           ------  ------- --------------  --------------  ------- ------- ------------------                        ---------------------
00013.MPLS                                                      AVC     1:27:47 22 516 340 736  37 269 831 689  34,20   28,00   DTS-HD Master 5.1 3997Kbps (48kHz/24-bit)

Код:
Код: Выделить всё
DISC INFO:

Disc Title:     REDBULL_STRATOS_RUS
Disc Size:      37 269 831 689 bytes
Protection:     AACS
BD-Java:        No
BDInfo:         0.5.2

PLAYLIST REPORT:

Name:                   00013.MPLS
Size:                   22 516 340 736 bytes
Length:                 1:27:47 (h:m:s)
Total Bitrate:          34,20 Mbps
Description:

VIDEO:

Codec                   Bitrate             Description
-----                   -------             -----------
MPEG-4 AVC Video        27996 kbps          1080i / 25 fps / 16:9 / High Profile 4.1

AUDIO:

Codec                           Language        Bitrate         Description
-----                           --------        -------         -----------
DTS-HD Master Audio             German          3997 kbps       5.1 / 48 kHz / 3997 kbps / 24-bit (DTS Core: 5.1 / 48 kHz / 1509 kbps / 24-bit)
Dolby Digital Audio             English         192 kbps        2.0 / 48 kHz / 192 kbps
Dolby Digital Audio             Russian         192 kbps        2.0 / 48 kHz / 192 kbps

SUBTITLES:

Codec                           Language        Bitrate         Description
-----                           --------        -------         -----------
Presentation Graphics           German          20,174 kbps

FILES:

Name            Time In         Length          Size            Total Bitrate
----            -------         ------          ----            -------------
00014.M2TS      0:00:00.000     1:27:47.000     22 516 340 736  34 200

CHAPTERS:

Number          Time In         Length          Avg Video Rate  Max 1-Sec Rate  Max 1-Sec Time  Max 5-Sec Rate  Max 5-Sec Time  Max 10Sec Rate  Max 10Sec Time  Avg Frame Size  Max Frame Size  Max Frame Time
------          -------         ------          --------------  --------------  --------------  --------------  --------------  --------------  --------------  --------------  --------------  --------------
1               0:00:00.000     0:05:08.760     27 208 kbps     35 562 kbps     00:04:46.000    33 236 kbps     00:02:49.919    32 940 kbps     00:03:41.560    136 020 bytes   341 342 bytes   00:03:16.840
2               0:05:08.760     0:03:01.680     28 091 kbps     37 516 kbps     00:07:53.400    33 097 kbps     00:06:13.600    32 919 kbps     00:07:04.400    140 457 bytes   351 708 bytes   00:06:16.640
3               0:08:10.440     0:03:42.599     29 261 kbps     34 366 kbps     00:11:31.800    33 074 kbps     00:11:10.480    32 905 kbps     00:11:05.400    146 305 bytes   317 418 bytes   00:11:29.440
4               0:11:53.040     0:02:38.840     28 073 kbps     33 870 kbps     00:13:23.640    32 984 kbps     00:13:23.000    32 855 kbps     00:13:22.120    140 365 bytes   392 458 bytes   00:13:05.000
5               0:14:31.880     0:09:46.880     27 181 kbps     34 650 kbps     00:21:52.000    33 046 kbps     00:16:03.400    32 893 kbps     00:17:10.440    135 906 bytes   369 885 bytes   00:14:43.119
6               0:24:18.760     0:01:36.599     29 014 kbps     34 369 kbps     00:24:36.360    32 372 kbps     00:24:35.760    31 327 kbps     00:24:30.720    145 069 bytes   321 658 bytes   00:25:09.800
7               0:25:55.360     0:06:33.480     28 439 kbps     35 801 kbps     00:27:19.159    33 119 kbps     00:26:08.719    32 932 kbps     00:26:09.720    142 193 bytes   330 167 bytes   00:26:07.760
8               0:32:28.840     0:03:29.480     28 120 kbps     38 582 kbps     00:34:09.560    33 529 kbps     00:33:54.239    32 907 kbps     00:33:55.400    140 600 bytes   435 415 bytes   00:34:10.960
9               0:35:58.320     0:07:49.319     26 478 kbps     34 166 kbps     00:37:03.440    33 100 kbps     00:36:59.400    32 816 kbps     00:40:25.680    132 390 bytes   379 987 bytes   00:36:57.480
10              0:43:47.640     0:00:42.599     31 420 kbps     33 899 kbps     00:44:21.200    32 982 kbps     00:44:17.239    32 865 kbps     00:44:13.880    157 100 bytes   318 233 bytes   00:43:50.600
11              0:44:30.239     0:02:51.000     30 935 kbps     34 312 kbps     00:46:37.920    33 020 kbps     00:46:36.920    32 889 kbps     00:44:31.400    154 673 bytes   342 442 bytes   00:45:25.800
12              0:47:21.239     0:03:38.160     28 279 kbps     33 908 kbps     00:48:16.680    32 922 kbps     00:48:53.920    32 656 kbps     00:48:15.680    141 397 bytes   326 439 bytes   00:48:31.239
13              0:50:59.400     0:05:37.199     25 796 kbps     34 242 kbps     00:51:44.840    33 015 kbps     00:51:40.840    32 854 kbps     00:51:28.520    128 980 bytes   338 119 bytes   00:56:21.920
14              0:56:36.600     0:02:08.120     29 445 kbps     34 008 kbps     00:56:53.800    32 934 kbps     00:56:53.239    32 810 kbps     00:58:24.920    147 226 bytes   320 477 bytes   00:56:46.560
15              0:58:44.720     0:03:10.439     31 690 kbps     34 473 kbps     01:01:42.800    33 112 kbps     01:01:38.800    32 849 kbps     01:01:45.080    158 450 bytes   324 406 bytes   01:01:55.120
16              1:01:55.160     0:03:18.480     32 359 kbps     34 242 kbps     01:02:15.400    33 126 kbps     01:03:07.520    32 954 kbps     01:03:02.520    161 796 bytes   347 784 bytes   01:02:05.120
17              1:05:13.640     0:22:07.759     27 626 kbps     36 064 kbps     01:10:57.760    33 433 kbps     01:16:57.800    32 976 kbps     01:06:33.880    138 130 bytes   350 983 bytes   01:08:02.760
18              1:27:21.400     0:00:25.600     12 095 kbps     14 050 kbps     01:27:34.439    13 395 kbps     01:27:32.080    13 286 kbps     01:27:26.320    60 570 bytes    220 203 bytes   01:27:38.360

STREAM DIAGNOSTICS:

File            PID             Type            Codec           Language                Seconds                 Bitrate                 Bytes           Packets
----            ---             ----            -----           --------                --------------          --------------          -------------   -----
00014.M2TS      4113 (0x1011)   0x1B            AVC                                     5266,840                27 997                  18 431 926 181  100 250 043
00014.M2TS      4352 (0x1100)   0x81            AC3             rus (Russian)           5266,840                192                     126 408 192     822 970
00014.M2TS      4353 (0x1101)   0x81            AC3             eng (English)           5266,840                192                     126 408 192     822 970
00014.M2TS      4354 (0x1102)   0x86            DTS-HD MA       deu (German)            5266,840                3 997                   2 631 648 688   15 124 023
00014.M2TS      4608 (0x1200)   0x90            PGS             deu (German)            5266,840                20                      13 281 736      76 120

<---- END FORUMS PASTE ---->

QUICK SUMMARY:

Disc Title: REDBULL_STRATOS_RUS
Disc Size: 37 269 831 689 bytes
Protection: AACS
BD-Java: No
Playlist: 00013.MPLS
Size: 22 516 340 736 bytes
Length: 1:27:47
Total Bitrate: 34,20 Mbps
Video: MPEG-4 AVC Video / 27996 kbps / 1080i / 25 fps / 16:9 / High Profile 4.1
Audio: German / DTS-HD Master Audio / 5.1 / 48 kHz / 3997 kbps / 24-bit (DTS Core: 5.1 / 48 kHz / 1509 kbps / 24-bit)
Audio: English / Dolby Digital Audio / 2.0 / 48 kHz / 192 kbps
Audio: Russian / Dolby Digital Audio / 2.0 / 48 kHz / 192 kbps
Subtitle: German / 20,174 kbps

********************
PLAYLIST: 00020.MPLS
********************

<--- BEGIN FORUMS PASTE --->Код:
Код: Выделить всё
Total   Video
Title                                                           Codec   Length  Movie Size      Disc Size       Bitrate Bitrate Main Audio Track                          Secondary Audio Track
-----                                                           ------  ------- --------------  --------------  ------- ------- ------------------                        ---------------------
00020.MPLS                                                      AVC     0:04:55 1 090 621 440   37 269 831 689  29,58   28,00   DTS 2.0 256Kbps (48kHz/24-bit)

Код:
Код: Выделить всё
DISC INFO:

Disc Title:     REDBULL_STRATOS_RUS
Disc Size:      37 269 831 689 bytes
Protection:     AACS
BD-Java:        No
BDInfo:         0.5.2

PLAYLIST REPORT:

Name:                   00020.MPLS
Size:                   1 090 621 440 bytes
Length:                 0:04:55 (h:m:s)
Total Bitrate:          29,58 Mbps
Description:

VIDEO:

Codec                   Bitrate             Description
-----                   -------             -----------
MPEG-4 AVC Video        27997 kbps          1080i / 25 fps / 16:9 / High Profile 4.1

AUDIO:

Codec                           Language        Bitrate         Description
-----                           --------        -------         -----------
DTS Audio                       English         256 kbps        2.0 / 48 kHz / 256 kbps / 24-bit

FILES:

Name            Time In         Length          Size            Total Bitrate
----            -------         ------          ----            -------------
00021.M2TS      0:00:00.000     0:04:55.000     1 090 621 440   29 576

CHAPTERS:

Number          Time In         Length          Avg Video Rate  Max 1-Sec Rate  Max 1-Sec Time  Max 5-Sec Rate  Max 5-Sec Time  Max 10Sec Rate  Max 10Sec Time  Avg Frame Size  Max Frame Size  Max Frame Time
------          -------         ------          --------------  --------------  --------------  --------------  --------------  --------------  --------------  --------------  --------------  --------------
1               0:00:00.000     0:04:55.000     27 997 kbps     34 885 kbps     00:02:57.440    32 974 kbps     00:00:59.639    32 790 kbps     00:03:02.680    139 986 bytes   368 084 bytes   00:04:11.039

STREAM DIAGNOSTICS:

File            PID             Type            Codec           Language                Seconds                 Bitrate                 Bytes           Packets
----            ---             ----            -----           --------                --------------          --------------          -------------   -----
00021.M2TS      4113 (0x1011)   0x1B            AVC                                     294,840                 28 012                  1 032 394 459   5 615 106
00021.M2TS      4352 (0x1100)   0x82            DTS             eng (English)           294,840                 255                     9 403 380       55 314

<---- END FORUMS PASTE ---->

QUICK SUMMARY:

Disc Title: REDBULL_STRATOS_RUS
Disc Size: 37 269 831 689 bytes
Protection: AACS
BD-Java: No
Playlist: 00020.MPLS
Size: 1 090 621 440 bytes
Length: 0:04:55
Total Bitrate: 29,58 Mbps
Video: MPEG-4 AVC Video / 27997 kbps / 1080i / 25 fps / 16:9 / High Profile 4.1
Audio: English / DTS Audio / 2.0 / 48 kHz / 256 kbps / 24-bit

********************
PLAYLIST: 00025.MPLS
********************

<--- BEGIN FORUMS PASTE --->Код:
Код: Выделить всё
Total   Video
Title                                                           Codec   Length  Movie Size      Disc Size       Bitrate Bitrate Main Audio Track                          Secondary Audio Track
-----                                                           ------  ------- --------------  --------------  ------- ------- ------------------                        ---------------------
00025.MPLS                                                      AVC     0:04:52 1 079 384 064   37 269 831 689  29,57   27,99   DTS 2.0 256Kbps (48kHz/24-bit)

Код:
Код: Выделить всё
DISC INFO:

Disc Title:     REDBULL_STRATOS_RUS
Disc Size:      37 269 831 689 bytes
Protection:     AACS
BD-Java:        No
BDInfo:         0.5.2

PLAYLIST REPORT:

Name:                   00025.MPLS
Size:                   1 079 384 064 bytes
Length:                 0:04:52 (h:m:s)
Total Bitrate:          29,57 Mbps
Description:

VIDEO:

Codec                   Bitrate             Description
-----                   -------             -----------
MPEG-4 AVC Video        27993 kbps          1080i / 25 fps / 16:9 / High Profile 4.1

AUDIO:

Codec                           Language        Bitrate         Description
-----                           --------        -------         -----------
DTS Audio                       English         256 kbps        2.0 / 48 kHz / 256 kbps / 24-bit

FILES:

Name            Time In         Length          Size            Total Bitrate
----            -------         ------          ----            -------------
00026.M2TS      0:00:00.000     0:04:52.000     1 079 384 064   29 572

CHAPTERS:

Number          Time In         Length          Avg Video Rate  Max 1-Sec Rate  Max 1-Sec Time  Max 5-Sec Rate  Max 5-Sec Time  Max 10Sec Rate  Max 10Sec Time  Avg Frame Size  Max Frame Size  Max Frame Time
------          -------         ------          --------------  --------------  --------------  --------------  --------------  --------------  --------------  --------------  --------------  --------------
1               0:00:00.000     0:04:52.000     27 993 kbps     37 719 kbps     00:01:06.440    33 741 kbps     00:01:02.399    32 927 kbps     00:04:05.080    139 967 bytes   396 479 bytes   00:00:54.000

STREAM DIAGNOSTICS:

File            PID             Type            Codec           Language                Seconds                 Bitrate                 Bytes           Packets
----            ---             ----            -----           --------                --------------          --------------          -------------   -----
00026.M2TS      4113 (0x1011)   0x1B            AVC                                     291,840                 28 009                  1 021 756 252   5 557 253
00026.M2TS      4352 (0x1100)   0x82            DTS             eng (English)           291,840                 255                     9 307 500       54 750

<---- END FORUMS PASTE ---->

QUICK SUMMARY:

Disc Title: REDBULL_STRATOS_RUS
Disc Size: 37 269 831 689 bytes
Protection: AACS
BD-Java: No
Playlist: 00025.MPLS
Size: 1 079 384 064 bytes
Length: 0:04:52
Total Bitrate: 29,57 Mbps
Video: MPEG-4 AVC Video / 27993 kbps / 1080i / 25 fps / 16:9 / High Profile 4.1
Audio: English / DTS Audio / 2.0 / 48 kHz / 256 kbps / 24-bit

********************
PLAYLIST: 00016.MPLS
********************

<--- BEGIN FORUMS PASTE --->Код:
Код: Выделить всё
Total   Video
Title                                                           Codec   Length  Movie Size      Disc Size       Bitrate Bitrate Main Audio Track                          Secondary Audio Track
-----                                                           ------  ------- --------------  --------------  ------- ------- ------------------                        ---------------------
00016.MPLS                                                      AVC     0:04:48 1 064 552 448   37 269 831 689  29,57   27,99   DTS 2.0 256Kbps (48kHz/24-bit)

Код:
Код: Выделить всё
DISC INFO:

Disc Title:     REDBULL_STRATOS_RUS
Disc Size:      37 269 831 689 bytes
Protection:     AACS
BD-Java:        No
BDInfo:         0.5.2

PLAYLIST REPORT:

Name:                   00016.MPLS
Size:                   1 064 552 448 bytes
Length:                 0:04:48 (h:m:s)
Total Bitrate:          29,57 Mbps
Description:

VIDEO:

Codec                   Bitrate             Description
-----                   -------             -----------
MPEG-4 AVC Video        27992 kbps          1080i / 25 fps / 16:9 / High Profile 4.1

AUDIO:

Codec                           Language        Bitrate         Description
-----                           --------        -------         -----------
DTS Audio                       English         256 kbps        2.0 / 48 kHz / 256 kbps / 24-bit

FILES:

Name            Time In         Length          Size            Total Bitrate
----            -------         ------          ----            -------------
00017.M2TS      0:00:00.000     0:04:48.000     1 064 552 448   29 571

CHAPTERS:

Number          Time In         Length          Avg Video Rate  Max 1-Sec Rate  Max 1-Sec Time  Max 5-Sec Rate  Max 5-Sec Time  Max 10Sec Rate  Max 10Sec Time  Avg Frame Size  Max Frame Size  Max Frame Time
------          -------         ------          --------------  --------------  --------------  --------------  --------------  --------------  --------------  --------------  --------------  --------------
1               0:00:00.000     0:04:48.000     27 992 kbps     35 294 kbps     00:03:21.519    33 149 kbps     00:02:56.880    32 907 kbps     00:02:57.200    139 960 bytes   380 691 bytes   00:04:09.679

STREAM DIAGNOSTICS:

File            PID             Type            Codec           Language                Seconds                 Bitrate                 Bytes           Packets
----            ---             ----            -----           --------                --------------          --------------          -------------   -----
00017.M2TS      4113 (0x1011)   0x1B            AVC                                     287,840                 28 008                  1 007 710 711   5 480 870
00017.M2TS      4352 (0x1100)   0x82            DTS             eng (English)           287,840                 255                     9 180 000       54 000

<---- END FORUMS PASTE ---->

QUICK SUMMARY:

Disc Title: REDBULL_STRATOS_RUS
Disc Size: 37 269 831 689 bytes
Protection: AACS
BD-Java: No
Playlist: 00016.MPLS
Size: 1 064 552 448 bytes
Length: 0:04:48
Total Bitrate: 29,57 Mbps
Video: MPEG-4 AVC Video / 27992 kbps / 1080i / 25 fps / 16:9 / High Profile 4.1
Audio: English / DTS Audio / 2.0 / 48 kHz / 256 kbps / 24-bit

********************
PLAYLIST: 00024.MPLS
********************

<--- BEGIN FORUMS PASTE --->Код:
Код: Выделить всё
Total   Video
Title                                                           Codec   Length  Movie Size      Disc Size       Bitrate Bitrate Main Audio Track                          Secondary Audio Track
-----                                                           ------  ------- --------------  --------------  ------- ------- ------------------                        ---------------------
00024.MPLS                                                      AVC     0:04:45 1 053 708 288   37 269 831 689  29,58   28,00   DTS 2.0 256Kbps (48kHz/24-bit)

Код:
Код: Выделить всё
DISC INFO:

Disc Title:     REDBULL_STRATOS_RUS
Disc Size:      37 269 831 689 bytes
Protection:     AACS
BD-Java:        No
BDInfo:         0.5.2

PLAYLIST REPORT:

Name:                   00024.MPLS
Size:                   1 053 708 288 bytes
Length:                 0:04:45 (h:m:s)
Total Bitrate:          29,58 Mbps
Description:

VIDEO:

Codec                   Bitrate             Description
-----                   -------             -----------
MPEG-4 AVC Video        27998 kbps          1080i / 25 fps / 16:9 / High Profile 4.1

AUDIO:

Codec                           Language        Bitrate         Description
-----                           --------        -------         -----------
DTS Audio                       English         256 kbps        2.0 / 48 kHz / 256 kbps / 24-bit

FILES:

Name            Time In         Length          Size            Total Bitrate
----            -------         ------          ----            -------------
00025.M2TS      0:00:00.000     0:04:45.000     1 053 708 288   29 578

CHAPTERS:

Number          Time In         Length          Avg Video Rate  Max 1-Sec Rate  Max 1-Sec Time  Max 5-Sec Rate  Max 5-Sec Time  Max 10Sec Rate  Max 10Sec Time  Avg Frame Size  Max Frame Size  Max Frame Time
------          -------         ------          --------------  --------------  --------------  --------------  --------------  --------------  --------------  --------------  --------------  --------------
1               0:00:00.000     0:04:45.000     27 998 kbps     34 455 kbps     00:02:38.399    33 063 kbps     00:02:34.399    32 782 kbps     00:02:31.760    139 992 bytes   360 742 bytes   00:01:09.720

STREAM DIAGNOSTICS:

File            PID             Type            Codec           Language                Seconds                 Bitrate                 Bytes           Packets
----            ---             ----            -----           --------                --------------          --------------          -------------   -----
00025.M2TS      4113 (0x1011)   0x1B            AVC                                     284,840                 28 014                  997 446 180     5 425 048
00025.M2TS      4352 (0x1100)   0x82            DTS             eng (English)           284,840                 255                     9 084 460       53 438

<---- END FORUMS PASTE ---->

QUICK SUMMARY:

Disc Title: REDBULL_STRATOS_RUS
Disc Size: 37 269 831 689 bytes
Protection: AACS
BD-Java: No
Playlist: 00024.MPLS
Size: 1 053 708 288 bytes
Length: 0:04:45
Total Bitrate: 29,58 Mbps
Video: MPEG-4 AVC Video / 27998 kbps / 1080i / 25 fps / 16:9 / High Profile 4.1
Audio: English / DTS Audio / 2.0 / 48 kHz / 256 kbps / 24-bit

********************
PLAYLIST: 00014.MPLS
********************

<--- BEGIN FORUMS PASTE --->Код:
Код: Выделить всё
Total   Video
Title                                                           Codec   Length  Movie Size      Disc Size       Bitrate Bitrate Main Audio Track                          Secondary Audio Track
-----                                                           ------  ------- --------------  --------------  ------- ------- ------------------                        ---------------------
00014.MPLS                                                      AVC     0:04:36 1 019 891 712   37 269 831 689  29,56   27,98   DTS 2.0 256Kbps (48kHz/24-bit)

Код:
Код: Выделить всё
DISC INFO:

Disc Title:     REDBULL_STRATOS_RUS
Disc Size:      37 269 831 689 bytes
Protection:     AACS
BD-Java:        No
BDInfo:         0.5.2

PLAYLIST REPORT:

Name:                   00014.MPLS
Size:                   1 019 891 712 bytes
Length:                 0:04:36 (h:m:s)
Total Bitrate:          29,56 Mbps
Description:

VIDEO:

Codec                   Bitrate             Description
-----                   -------             -----------
MPEG-4 AVC Video        27984 kbps          1080i / 25 fps / 16:9 / High Profile 4.1

AUDIO:

Codec                           Language        Bitrate         Description
-----                           --------        -------         -----------
DTS Audio                       English         256 kbps        2.0 / 48 kHz / 256 kbps / 24-bit

FILES:

Name            Time In         Length          Size            Total Bitrate
----            -------         ------          ----            -------------
00015.M2TS      0:00:00.000     0:04:36.000     1 019 891 712   29 562

CHAPTERS:

Number          Time In         Length          Avg Video Rate  Max 1-Sec Rate  Max 1-Sec Time  Max 5-Sec Rate  Max 5-Sec Time  Max 10Sec Rate  Max 10Sec Time  Avg Frame Size  Max Frame Size  Max Frame Time
------          -------         ------          --------------  --------------  --------------  --------------  --------------  --------------  --------------  --------------  --------------  --------------
1               0:00:00.000     0:04:36.000     27 984 kbps     35 664 kbps     00:04:32.600    33 393 kbps     00:04:28.600    32 861 kbps     00:02:48.800    139 918 bytes   482 658 bytes   00:00:57.919

STREAM DIAGNOSTICS:

File            PID             Type            Codec           Language                Seconds                 Bitrate                 Bytes           Packets
----            ---             ----            -----           --------                --------------          --------------          -------------   -----
00015.M2TS      4113 (0x1011)   0x1B            AVC                                     275,880                 27 996                  965 431 683     5 250 908
00015.M2TS      4352 (0x1100)   0x82            DTS             eng (English)           275,880                 255                     8 797 500       51 750

<---- END FORUMS PASTE ---->

QUICK SUMMARY:

Disc Title: REDBULL_STRATOS_RUS
Disc Size: 37 269 831 689 bytes
Protection: AACS
BD-Java: No
Playlist: 00014.MPLS
Size: 1 019 891 712 bytes
Length: 0:04:36
Total Bitrate: 29,56 Mbps
Video: MPEG-4 AVC Video / 27984 kbps / 1080i / 25 fps / 16:9 / High Profile 4.1
Audio: English / DTS Audio / 2.0 / 48 kHz / 256 kbps / 24-bit

********************
PLAYLIST: 00021.MPLS
********************

<--- BEGIN FORUMS PASTE --->Код:
Код: Выделить всё
Total   Video
Title                                                           Codec   Length  Movie Size      Disc Size       Bitrate Bitrate Main Audio Track                          Secondary Audio Track
-----                                                           ------  ------- --------------  --------------  ------- ------- ------------------                        ---------------------
00021.MPLS                                                      AVC     0:04:35 1 016 598 528   37 269 831 689  29,57   27,99   DTS 2.0 256Kbps (48kHz/24-bit)

Код:
Код: Выделить всё
DISC INFO:

Disc Title:     REDBULL_STRATOS_RUS
Disc Size:      37 269 831 689 bytes
Protection:     AACS
BD-Java:        No
BDInfo:         0.5.2

PLAYLIST REPORT:

Name:                   00021.MPLS
Size:                   1 016 598 528 bytes
Length:                 0:04:35 (h:m:s)
Total Bitrate:          29,57 Mbps
Description:

VIDEO:

Codec                   Bitrate             Description
-----                   -------             -----------
MPEG-4 AVC Video        27995 kbps          1080i / 25 fps / 16:9 / High Profile 4.1

AUDIO:

Codec                           Language        Bitrate         Description
-----                           --------        -------         -----------
DTS Audio                       English         256 kbps        2.0 / 48 kHz / 256 kbps / 24-bit

FILES:

Name            Time In         Length          Size            Total Bitrate
----            -------         ------          ----            -------------
00022.M2TS      0:00:00.000     0:04:35.000     1 016 598 528   29 574

CHAPTERS:

Number          Time In         Length          Avg Video Rate  Max 1-Sec Rate  Max 1-Sec Time  Max 5-Sec Rate  Max 5-Sec Time  Max 10Sec Rate  Max 10Sec Time  Avg Frame Size  Max Frame Size  Max Frame Time
------          -------         ------          --------------  --------------  --------------  --------------  --------------  --------------  --------------  --------------  --------------  --------------
1               0:00:00.000     0:04:35.000     27 995 kbps     34 286 kbps     00:01:04.080    32 927 kbps     00:01:54.720    32 828 kbps     00:02:07.280    139 973 bytes   322 837 bytes   00:01:05.039

STREAM DIAGNOSTICS:

File            PID             Type            Codec           Language                Seconds                 Bitrate                 Bytes           Packets
----            ---             ----            -----           --------                --------------          --------------          -------------   -----
00022.M2TS      4113 (0x1011)   0x1B            AVC                                     274,840                 28 011                  962 314 959     5 233 998
00022.M2TS      4352 (0x1100)   0x82            DTS             eng (English)           274,840                 255                     8 765 880       51 564

<---- END FORUMS PASTE ---->

QUICK SUMMARY:

Disc Title: REDBULL_STRATOS_RUS
Disc Size: 37 269 831 689 bytes
Protection: AACS
BD-Java: No
Playlist: 00021.MPLS
Size: 1 016 598 528 bytes
Length: 0:04:35
Total Bitrate: 29,57 Mbps
Video: MPEG-4 AVC Video / 27995 kbps / 1080i / 25 fps / 16:9 / High Profile 4.1
Audio: English / DTS Audio / 2.0 / 48 kHz / 256 kbps / 24-bit

********************
PLAYLIST: 00026.MPLS
********************

<--- BEGIN FORUMS PASTE --->Код:
Код: Выделить всё
Total   Video
Title                                                           Codec   Length  Movie Size      Disc Size       Bitrate Bitrate Main Audio Track                          Secondary Audio Track
-----                                                           ------  ------- --------------  --------------  ------- ------- ------------------                        ---------------------
00026.MPLS                                                      AVC     0:04:23 971 956 224     37 269 831 689  29,57   27,99   DTS 2.0 256Kbps (48kHz/24-bit)

Код:
Код: Выделить всё
DISC INFO:

Disc Title:     REDBULL_STRATOS_RUS
Disc Size:      37 269 831 689 bytes
Protection:     AACS
BD-Java:        No
BDInfo:         0.5.2

PLAYLIST REPORT:

Name:                   00026.MPLS
Size:                   971 956 224 bytes
Length:                 0:04:23 (h:m:s)
Total Bitrate:          29,57 Mbps
Description:

VIDEO:

Codec                   Bitrate             Description
-----                   -------             -----------
MPEG-4 AVC Video        27987 kbps          1080i / 25 fps / 16:9 / High Profile 4.1

AUDIO:

Codec                           Language        Bitrate         Description
-----                           --------        -------         -----------
DTS Audio                       English         256 kbps        2.0 / 48 kHz / 256 kbps / 24-bit

FILES:

Name            Time In         Length          Size            Total Bitrate
----            -------         ------          ----            -------------
00027.M2TS      0:00:00.000     0:04:23.000     971 956 224     29 565

CHAPTERS:

Number          Time In         Length          Avg Video Rate  Max 1-Sec Rate  Max 1-Sec Time  Max 5-Sec Rate  Max 5-Sec Time  Max 10Sec Rate  Max 10Sec Time  Avg Frame Size  Max Frame Size  Max Frame Time
------          -------         ------          --------------  --------------  --------------  --------------  --------------  --------------  --------------  --------------  --------------  --------------
1               0:00:00.000     0:04:23.000     27 987 kbps     36 689 kbps     00:00:31.399    33 640 kbps     00:00:27.399    32 141 kbps     00:00:22.519    139 933 bytes   349 404 bytes   00:03:15.600

STREAM DIAGNOSTICS:

File            PID             Type            Codec           Language                Seconds                 Bitrate                 Bytes           Packets
----            ---             ----            -----           --------                --------------          --------------          -------------   -----
00027.M2TS      4113 (0x1011)   0x1B            AVC                                     262,840                 28 004                  920 059 394     5 004 131
00027.M2TS      4352 (0x1100)   0x82            DTS             eng (English)           262,840                 255                     8 383 380       49 314

<---- END FORUMS PASTE ---->

QUICK SUMMARY:

Disc Title: REDBULL_STRATOS_RUS
Disc Size: 37 269 831 689 bytes
Protection: AACS
BD-Java: No
Playlist: 00026.MPLS
Size: 971 956 224 bytes
Length: 0:04:23
Total Bitrate: 29,57 Mbps
Video: MPEG-4 AVC Video / 27987 kbps / 1080i / 25 fps / 16:9 / High Profile 4.1
Audio: English / DTS Audio / 2.0 / 48 kHz / 256 kbps / 24-bit

********************
PLAYLIST: 00018.MPLS
********************

<--- BEGIN FORUMS PASTE --->Код:
Код: Выделить всё
Total   Video
Title                                                           Codec   Length  Movie Size      Disc Size       Bitrate Bitrate Main Audio Track                          Secondary Audio Track
-----                                                           ------  ------- --------------  --------------  ------- ------- ------------------                        ---------------------
00018.MPLS                                                      AVC     0:04:16 946 274 304     37 269 831 689  29,57   27,99   DTS 2.0 256Kbps (48kHz/24-bit)

Код:
Код: Выделить всё
DISC INFO:

Disc Title:     REDBULL_STRATOS_RUS
Disc Size:      37 269 831 689 bytes
Protection:     AACS
BD-Java:        No
BDInfo:         0.5.2

PLAYLIST REPORT:

Name:                   00018.MPLS
Size:                   946 274 304 bytes
Length:                 0:04:16 (h:m:s)
Total Bitrate:          29,57 Mbps
Description:

VIDEO:

Codec                   Bitrate             Description
-----                   -------             -----------
MPEG-4 AVC Video        27992 kbps          1080i / 25 fps / 16:9 / High Profile 4.1

AUDIO:

Codec                           Language        Bitrate         Description
-----                           --------        -------         -----------
DTS Audio                       English         256 kbps        2.0 / 48 kHz / 256 kbps / 24-bit

FILES:

Name            Time In         Length          Size            Total Bitrate
----            -------         ------          ----            -------------
00019.M2TS      0:00:00.000     0:04:16.000     946 274 304     29 571

CHAPTERS:

Number          Time In         Length          Avg Video Rate  Max 1-Sec Rate  Max 1-Sec Time  Max 5-Sec Rate  Max 5-Sec Time  Max 10Sec Rate  Max 10Sec Time  Avg Frame Size  Max Frame Size  Max Frame Time
------          -------         ------          --------------  --------------  --------------  --------------  --------------  --------------  --------------  --------------  --------------  --------------
1               0:00:00.000     0:04:16.000     27 992 kbps     39 308 kbps     00:00:38.600    33 929 kbps     00:00:34.600    33 490 kbps     00:00:29.560    139 960 bytes   407 544 bytes   00:02:40.559

STREAM DIAGNOSTICS:

File            PID             Type            Codec           Language                Seconds                 Bitrate                 Bytes           Packets
----            ---             ----            -----           --------                --------------          --------------          -------------   -----
00019.M2TS      4113 (0x1011)   0x1B            AVC                                     255,840                 28 010                  895 744 183     4 871 931
00019.M2TS      4352 (0x1100)   0x82            DTS             eng (English)           255,840                 255                     8 160 000       48 000

<---- END FORUMS PASTE ---->

QUICK SUMMARY:

Disc Title: REDBULL_STRATOS_RUS
Disc Size: 37 269 831 689 bytes
Protection: AACS
BD-Java: No
Playlist: 00018.MPLS
Size: 946 274 304 bytes
Length: 0:04:16
Total Bitrate: 29,57 Mbps
Video: MPEG-4 AVC Video / 27992 kbps / 1080i / 25 fps / 16:9 / High Profile 4.1
Audio: English / DTS Audio / 2.0 / 48 kHz / 256 kbps / 24-bit

********************
PLAYLIST: 00022.MPLS
********************

<--- BEGIN FORUMS PASTE --->Код:
Код: Выделить всё
Total   Video
Title                                                           Codec   Length  Movie Size      Disc Size       Bitrate Bitrate Main Audio Track                          Secondary Audio Track
-----                                                           ------  ------- --------------  --------------  ------- ------- ------------------                        ---------------------
00022.MPLS                                                      AVC     0:03:58 879 869 952     37 269 831 689  29,58   28,00   DTS 2.0 256Kbps (48kHz/24-bit)

Код:
Код: Выделить всё
DISC INFO:

Disc Title:     REDBULL_STRATOS_RUS
Disc Size:      37 269 831 689 bytes
Protection:     AACS
BD-Java:        No
BDInfo:         0.5.2

PLAYLIST REPORT:

Name:                   00022.MPLS
Size:                   879 869 952 bytes
Length:                 0:03:58 (h:m:s)
Total Bitrate:          29,58 Mbps
Description:

VIDEO:

Codec                   Bitrate             Description
-----                   -------             -----------
MPEG-4 AVC Video        27996 kbps          1080i / 25 fps / 16:9 / High Profile 4.1

AUDIO:

Codec                           Language        Bitrate         Description
-----                           --------        -------         -----------
DTS Audio                       English         256 kbps        2.0 / 48 kHz / 256 kbps / 24-bit

FILES:

Name            Time In         Length          Size            Total Bitrate
----            -------         ------          ----            -------------
00023.M2TS      0:00:00.000     0:03:58.000     879 869 952     29 575

CHAPTERS:

Number          Time In         Length          Avg Video Rate  Max 1-Sec Rate  Max 1-Sec Time  Max 5-Sec Rate  Max 5-Sec Time  Max 10Sec Rate  Max 10Sec Time  Avg Frame Size  Max Frame Size  Max Frame Time
------          -------         ------          --------------  --------------  --------------  --------------  --------------  --------------  --------------  --------------  --------------  --------------
1               0:00:00.000     0:03:58.000     27 996 kbps     34 564 kbps     00:02:40.320    33 003 kbps     00:01:03.840    32 867 kbps     00:03:02.920    139 982 bytes   379 738 bytes   00:00:48.720

STREAM DIAGNOSTICS:

File            PID             Type            Codec           Language                Seconds                 Bitrate                 Bytes           Packets
----            ---             ----            -----           --------                --------------          --------------          -------------   -----
00023.M2TS      4113 (0x1011)   0x1B            AVC                                     237,840                 28 015                  832 893 614     4 530 048
00023.M2TS      4352 (0x1100)   0x82            DTS             eng (English)           237,840                 255                     7 586 420       44 626

<---- END FORUMS PASTE ---->

QUICK SUMMARY:

Disc Title: REDBULL_STRATOS_RUS
Disc Size: 37 269 831 689 bytes
Protection: AACS
BD-Java: No
Playlist: 00022.MPLS
Size: 879 869 952 bytes
Length: 0:03:58
Total Bitrate: 29,58 Mbps
Video: MPEG-4 AVC Video / 27996 kbps / 1080i / 25 fps / 16:9 / High Profile 4.1
Audio: English / DTS Audio / 2.0 / 48 kHz / 256 kbps / 24-bit

********************
PLAYLIST: 00015.MPLS
********************

<--- BEGIN FORUMS PASTE --->Код:
Код: Выделить всё
Total   Video
Title                                                           Codec   Length  Movie Size      Disc Size       Bitrate Bitrate Main Audio Track                          Secondary Audio Track
-----                                                           ------  ------- --------------  --------------  ------- ------- ------------------                        ---------------------
00015.MPLS                                                      AVC     0:03:57 875 845 632     37 269 831 689  29,56   27,99   DTS 2.0 256Kbps (48kHz/24-bit)

Код:
Код: Выделить всё
DISC INFO:

Disc Title:     REDBULL_STRATOS_RUS
Disc Size:      37 269 831 689 bytes
Protection:     AACS
BD-Java:        No
BDInfo:         0.5.2

PLAYLIST REPORT:

Name:                   00015.MPLS
Size:                   875 845 632 bytes
Length:                 0:03:57 (h:m:s)
Total Bitrate:          29,56 Mbps
Description:

VIDEO:

Codec                   Bitrate             Description
-----                   -------             -----------
MPEG-4 AVC Video        27986 kbps          1080i / 25 fps / 16:9 / High Profile 4.1

AUDIO:

Codec                           Language        Bitrate         Description
-----                           --------        -------         -----------
DTS Audio                       English         256 kbps        2.0 / 48 kHz / 256 kbps / 24-bit

FILES:

Name            Time In         Length          Size            Total Bitrate
----            -------         ------          ----            -------------
00016.M2TS      0:00:00.000     0:03:57.000     875 845 632     29 564

CHAPTERS:

Number          Time In         Length          Avg Video Rate  Max 1-Sec Rate  Max 1-Sec Time  Max 5-Sec Rate  Max 5-Sec Time  Max 10Sec Rate  Max 10Sec Time  Avg Frame Size  Max Frame Size  Max Frame Time
------          -------         ------          --------------  --------------  --------------  --------------  --------------  --------------  --------------  --------------  --------------  --------------
1               0:00:00.000     0:03:57.000     27 986 kbps     35 044 kbps     00:03:05.279    33 030 kbps     00:00:18.639    32 569 kbps     00:02:29.360    139 929 bytes   438 876 bytes   00:03:19.279

STREAM DIAGNOSTICS:

File            PID             Type            Codec           Language                Seconds                 Bitrate                 Bytes           Packets
----            ---             ----            -----           --------                --------------          --------------          -------------   -----
00016.M2TS      4113 (0x1011)   0x1B            AVC                                     236,840                 28 005                  829 077 424     4 509 316
00016.M2TS      4352 (0x1100)   0x82            DTS             eng (English)           236,840                 255                     7 554 460       44 438

<---- END FORUMS PASTE ---->

QUICK SUMMARY:

Disc Title: REDBULL_STRATOS_RUS
Disc Size: 37 269 831 689 bytes
Protection: AACS
BD-Java: No
Playlist: 00015.MPLS
Size: 875 845 632 bytes
Length: 0:03:57
Total Bitrate: 29,56 Mbps
Video: MPEG-4 AVC Video / 27986 kbps / 1080i / 25 fps / 16:9 / High Profile 4.1
Audio: English / DTS Audio / 2.0 / 48 kHz / 256 kbps / 24-bit

********************
PLAYLIST: 00017.MPLS
********************

<--- BEGIN FORUMS PASTE --->Код:
Код: Выделить всё
Total   Video
Title                                                           Codec   Length  Movie Size      Disc Size       Bitrate Bitrate Main Audio Track                          Secondary Audio Track
-----                                                           ------  ------- --------------  --------------  ------- ------- ------------------                        ---------------------
00017.MPLS                                                      AVC     0:03:43 824 199 168     37 269 831 689  29,57   27,99   DTS 2.0 256Kbps (48kHz/24-bit)

Код:
Код: Выделить всё
DISC INFO:

Disc Title:     REDBULL_STRATOS_RUS
Disc Size:      37 269 831 689 bytes
Protection:     AACS
BD-Java:        No
BDInfo:         0.5.2

PLAYLIST REPORT:

Name:                   00017.MPLS
Size:                   824 199 168 bytes
Length:                 0:03:43 (h:m:s)
Total Bitrate:          29,57 Mbps
Description:

VIDEO:

Codec                   Bitrate             Description
-----                   -------             -----------
MPEG-4 AVC Video        27989 kbps          1080i / 25 fps / 16:9 / High Profile 4.1

AUDIO:

Codec                           Language        Bitrate         Description
-----                           --------        -------         -----------
DTS Audio                       English         256 kbps        2.0 / 48 kHz / 256 kbps / 24-bit

FILES:

Name            Time In         Length          Size            Total Bitrate
----            -------         ------          ----            -------------
00018.M2TS      0:00:00.000     0:03:43.000     824 199 168     29 568

CHAPTERS:

Number          Time In         Length          Avg Video Rate  Max 1-Sec Rate  Max 1-Sec Time  Max 5-Sec Rate  Max 5-Sec Time  Max 10Sec Rate  Max 10Sec Time  Avg Frame Size  Max Frame Size  Max Frame Time
------          -------         ------          --------------  --------------  --------------  --------------  --------------  --------------  --------------  --------------  --------------  --------------
1               0:00:00.000     0:03:43.000     27 989 kbps     38 335 kbps     00:01:00.039    33 740 kbps     00:00:56.039    33 048 kbps     00:02:26.280    139 945 bytes   398 184 bytes   00:02:36.200

STREAM DIAGNOSTICS:

File            PID             Type            Codec           Language                Seconds                 Bitrate                 Bytes           Packets
----            ---             ----            -----           --------                --------------          --------------          -------------   -----
00018.M2TS      4113 (0x1011)   0x1B            AVC                                     222,840                 28 009                  780 191 617     4 243 405
00018.M2TS      4352 (0x1100)   0x82            DTS             eng (English)           222,840                 255                     7 108 380       41 814

<---- END FORUMS PASTE ---->

QUICK SUMMARY:

Disc Title: REDBULL_STRATOS_RUS
Disc Size: 37 269 831 689 bytes
Protection: AACS
BD-Java: No
Playlist: 00017.MPLS
Size: 824 199 168 bytes
Length: 0:03:43
Total Bitrate: 29,57 Mbps
Video: MPEG-4 AVC Video / 27989 kbps / 1080i / 25 fps / 16:9 / High Profile 4.1
Audio: English / DTS Audio / 2.0 / 48 kHz / 256 kbps / 24-bit

********************
PLAYLIST: 00023.MPLS
********************

<--- BEGIN FORUMS PASTE --->Код:
Код: Выделить всё
Total   Video
Title                                                           Codec   Length  Movie Size      Disc Size       Bitrate Bitrate Main Audio Track                          Secondary Audio Track
-----                                                           ------  ------- --------------  --------------  ------- ------- ------------------                        ---------------------
00023.MPLS                                                      AVC     0:03:36 798 406 656     37 269 831 689  29,57   27,99   DTS 2.0 256Kbps (48kHz/24-bit)

Код:
Код: Выделить всё
DISC INFO:

Disc Title:     REDBULL_STRATOS_RUS
Disc Size:      37 269 831 689 bytes
Protection:     AACS
BD-Java:        No
BDInfo:         0.5.2

PLAYLIST REPORT:

Name:                   00023.MPLS
Size:                   798 406 656 bytes
Length:                 0:03:36 (h:m:s)
Total Bitrate:          29,57 Mbps
Description:

VIDEO:

Codec                   Bitrate             Description
-----                   -------             -----------
MPEG-4 AVC Video        27992 kbps          1080i / 25 fps / 16:9 / High Profile 4.1

AUDIO:

Codec                           Language        Bitrate         Description
-----                           --------        -------         -----------
DTS Audio                       English         256 kbps        2.0 / 48 kHz / 256 kbps / 24-bit

FILES:

Name            Time In         Length          Size            Total Bitrate
----            -------         ------          ----            -------------
00024.M2TS      0:00:00.000     0:03:36.000     798 406 656     29 571

CHAPTERS:

Number          Time In         Length          Avg Video Rate  Max 1-Sec Rate  Max 1-Sec Time  Max 5-Sec Rate  Max 5-Sec Time  Max 10Sec Rate  Max 10Sec Time  Avg Frame Size  Max Frame Size  Max Frame Time
------          -------         ------          --------------  --------------  --------------  --------------  --------------  --------------  --------------  --------------  --------------  --------------
1               0:00:00.000     0:03:36.000     27 992 kbps     37 508 kbps     00:03:06.000    33 318 kbps     00:03:02.000    32 655 kbps     00:02:14.760    139 960 bytes   412 651 bytes   00:03:12.559

STREAM DIAGNOSTICS:

File            PID             Type            Codec           Language                Seconds                 Bitrate                 Bytes           Packets
----            ---             ----            -----           --------                --------------          --------------          -------------   -----
00024.M2TS      4113 (0x1011)   0x1B            AVC                                     215,840                 28 013                  755 782 163     4 110 622
00024.M2TS      4352 (0x1100)   0x82            DTS             eng (English)           215,840                 255                     6 885 000       40 500

<---- END FORUMS PASTE ---->

QUICK SUMMARY:

Disc Title: REDBULL_STRATOS_RUS
Disc Size: 37 269 831 689 bytes
Protection: AACS
BD-Java: No
Playlist: 00023.MPLS
Size: 798 406 656 bytes
Length: 0:03:36
Total Bitrate: 29,57 Mbps
Video: MPEG-4 AVC Video / 27992 kbps / 1080i / 25 fps / 16:9 / High Profile 4.1
Audio: English / DTS Audio / 2.0 / 48 kHz / 256 kbps / 24-bit

********************
PLAYLIST: 00028.MPLS
********************

<--- BEGIN FORUMS PASTE --->Код:
Код: Выделить всё
Total   Video
Title                                                           Codec   Length  Movie Size      Disc Size       Bitrate Bitrate Main Audio Track                          Secondary Audio Track
-----                                                           ------  ------- --------------  --------------  ------- ------- ------------------                        ---------------------
00028.MPLS                                                      AVC     0:03:33 787 765 248     37 269 831 689  29,55   27,98   DTS 2.0 256Kbps (48kHz/24-bit)

Код:
Код: Выделить всё
DISC INFO:

Disc Title:     REDBULL_STRATOS_RUS
Disc Size:      37 269 831 689 bytes
Protection:     AACS
BD-Java:        No
BDInfo:         0.5.2

PLAYLIST REPORT:

Name:                   00028.MPLS
Size:                   787 765 248 bytes
Length:                 0:03:33 (h:m:s)
Total Bitrate:          29,55 Mbps
Description:

VIDEO:

Codec                   Bitrate             Description
-----                   -------             -----------
MPEG-4 AVC Video        27976 kbps          1080i / 25 fps / 16:9 / High Profile 4.1

AUDIO:

Codec                           Language        Bitrate         Description
-----                           --------        -------         -----------
DTS Audio                       English         256 kbps        2.0 / 48 kHz / 256 kbps / 24-bit

FILES:

Name            Time In         Length          Size            Total Bitrate
----            -------         ------          ----            -------------
00029.M2TS      0:00:00.000     0:03:33.240     787 765 248     29 554

CHAPTERS:

Number          Time In         Length          Avg Video Rate  Max 1-Sec Rate  Max 1-Sec Time  Max 5-Sec Rate  Max 5-Sec Time  Max 10Sec Rate  Max 10Sec Time  Avg Frame Size  Max Frame Size  Max Frame Time
------          -------         ------          --------------  --------------  --------------  --------------  --------------  --------------  --------------  --------------  --------------  --------------
1               0:00:00.000     0:03:33.240     27 976 kbps     39 330 kbps     00:00:20.120    33 140 kbps     00:02:52.519    32 963 kbps     00:03:22.800    139 881 bytes   375 120 bytes   00:00:09.960

STREAM DIAGNOSTICS:

File            PID             Type            Codec           Language                Seconds                 Bitrate                 Bytes           Packets
----            ---             ----            -----           --------                --------------          --------------          -------------   -----
00029.M2TS      4113 (0x1011)   0x1B            AVC                                     213,080                 27 997                  745 705 005     4 055 803
00029.M2TS      4352 (0x1100)   0x82            DTS             eng (English)           213,080                 255                     6 797 280       39 984

<---- END FORUMS PASTE ---->

QUICK SUMMARY:

Disc Title: REDBULL_STRATOS_RUS
Disc Size: 37 269 831 689 bytes
Protection: AACS
BD-Java: No
Playlist: 00028.MPLS
Size: 787 765 248 bytes
Length: 0:03:33
Total Bitrate: 29,55 Mbps
Video: MPEG-4 AVC Video / 27976 kbps / 1080i / 25 fps / 16:9 / High Profile 4.1
Audio: English / DTS Audio / 2.0 / 48 kHz / 256 kbps / 24-bit

********************
PLAYLIST: 00019.MPLS
********************

<--- BEGIN FORUMS PASTE --->Код:
Код: Выделить всё
Total   Video
Title                                                           Codec   Length  Movie Size      Disc Size       Bitrate Bitrate Main Audio Track                          Secondary Audio Track
-----                                                           ------  ------- --------------  --------------  ------- ------- ------------------                        ---------------------
00019.MPLS                                                      AVC     0:03:22 746 674 176     37 269 831 689  29,57   27,99   DTS 2.0 256Kbps (48kHz/24-bit)

Код:
Код: Выделить всё
DISC INFO:

Disc Title:     REDBULL_STRATOS_RUS
Disc Size:      37 269 831 689 bytes
Protection:     AACS
BD-Java:        No
BDInfo:         0.5.2

PLAYLIST REPORT:

Name:                   00019.MPLS
Size:                   746 674 176 bytes
Length:                 0:03:22 (h:m:s)
Total Bitrate:          29,57 Mbps
Description:

VIDEO:

Codec                   Bitrate             Description
-----                   -------             -----------
MPEG-4 AVC Video        27992 kbps          1080i / 25 fps / 16:9 / High Profile 4.1

AUDIO:

Codec                           Language        Bitrate         Description
-----                           --------        -------         -----------
DTS Audio                       English         256 kbps        2.0 / 48 kHz / 256 kbps / 24-bit

FILES:

Name            Time In         Length          Size            Total Bitrate
----            -------         ------          ----            -------------
00020.M2TS      0:00:00.000     0:03:22.000     746 674 176     29 571

CHAPTERS:

Number          Time In         Length          Avg Video Rate  Max 1-Sec Rate  Max 1-Sec Time  Max 5-Sec Rate  Max 5-Sec Time  Max 10Sec Rate  Max 10Sec Time  Avg Frame Size  Max Frame Size  Max Frame Time
------          -------         ------          --------------  --------------  --------------  --------------  --------------  --------------  --------------  --------------  --------------  --------------
1               0:00:00.000     0:03:22.000     27 992 kbps     37 135 kbps     00:00:48.279    33 236 kbps     00:00:44.279    32 702 kbps     00:01:21.560    139 961 bytes   365 849 bytes   00:00:07.799

STREAM DIAGNOSTICS:

File            PID             Type            Codec           Language                Seconds                 Bitrate                 Bytes           Packets
----            ---             ----            -----           --------                --------------          --------------          -------------   -----
00020.M2TS      4113 (0x1011)   0x1B            AVC                                     201,840                 28 014                  706 804 099     3 844 270
00020.M2TS      4352 (0x1100)   0x82            DTS             eng (English)           201,840                 255                     6 438 920       37 876

<---- END FORUMS PASTE ---->

QUICK SUMMARY:

Disc Title: REDBULL_STRATOS_RUS
Disc Size: 37 269 831 689 bytes
Protection: AACS
BD-Java: No
Playlist: 00019.MPLS
Size: 746 674 176 bytes
Length: 0:03:22
Total Bitrate: 29,57 Mbps
Video: MPEG-4 AVC Video / 27992 kbps / 1080i / 25 fps / 16:9 / High Profile 4.1
Audio: English / DTS Audio / 2.0 / 48 kHz / 256 kbps / 24-bit

********************
PLAYLIST: 00047.MPLS
********************

<--- BEGIN FORUMS PASTE --->Код:
Код: Выделить всё
Total   Video
Title                                                           Codec   Length  Movie Size      Disc Size       Bitrate Bitrate Main Audio Track                          Secondary Audio Track
-----                                                           ------  ------- --------------  --------------  ------- ------- ------------------                        ---------------------
00047.MPLS                                                      AVC     0:03:05 683 685 888     37 269 831 689  29,56   27,99   DTS 2.0 256Kbps (48kHz/24-bit)

Код:
Код: Выделить всё
DISC INFO:

Disc Title:     REDBULL_STRATOS_RUS
Disc Size:      37 269 831 689 bytes
Protection:     AACS
BD-Java:        No
BDInfo:         0.5.2

PLAYLIST REPORT:

Name:                   00047.MPLS
Size:                   683 685 888 bytes
Length:                 0:03:05 (h:m:s)
Total Bitrate:          29,56 Mbps
Description:

VIDEO:

Codec                   Bitrate             Description
-----                   -------             -----------
MPEG-4 AVC Video        27987 kbps          1080i / 25 fps / 16:9 / High Profile 4.1

AUDIO:

Codec                           Language        Bitrate         Description
-----                           --------        -------         -----------
DTS Audio                       English         256 kbps        2.0 / 48 kHz / 256 kbps / 24-bit

FILES:

Name            Time In         Length          Size            Total Bitrate
----            -------         ------          ----            -------------
00032.M2TS      0:00:00.000     0:03:05.000     683 685 888     29 565

CHAPTERS:

Number          Time In         Length          Avg Video Rate  Max 1-Sec Rate  Max 1-Sec Time  Max 5-Sec Rate  Max 5-Sec Time  Max 10Sec Rate  Max 10Sec Time  Avg Frame Size  Max Frame Size  Max Frame Time
------          -------         ------          --------------  --------------  --------------  --------------  --------------  --------------  --------------  --------------  --------------  --------------
1               0:00:00.000     0:03:05.000     27 987 kbps     36 836 kbps     00:02:58.120    33 346 kbps     00:00:36.919    32 840 kbps     00:01:59.800    139 933 bytes   458 918 bytes   00:00:41.799

STREAM DIAGNOSTICS:

File            PID             Type            Codec           Language                Seconds                 Bitrate                 Bytes           Packets
----            ---             ----            -----           --------                --------------          --------------          -------------   -----
00032.M2TS      4113 (0x1011)   0x1B            AVC                                     184,840                 28 011                  647 190 221     3 519 964
00032.M2TS      4352 (0x1100)   0x82            DTS             eng (English)           184,840                 255                     5 896 960       34 688

<---- END FORUMS PASTE ---->

QUICK SUMMARY:

Disc Title: REDBULL_STRATOS_RUS
Disc Size: 37 269 831 689 bytes
Protection: AACS
BD-Java: No
Playlist: 00047.MPLS
Size: 683 685 888 bytes
Length: 0:03:05
Total Bitrate: 29,56 Mbps
Video: MPEG-4 AVC Video / 27987 kbps / 1080i / 25 fps / 16:9 / High Profile 4.1
Audio: English / DTS Audio / 2.0 / 48 kHz / 256 kbps / 24-bit

********************
PLAYLIST: 00045.MPLS
********************

<--- BEGIN FORUMS PASTE --->Код:
Код: Выделить всё
Total   Video
Title                                                           Codec   Length  Movie Size      Disc Size       Bitrate Bitrate Main Audio Track                          Secondary Audio Track
-----                                                           ------  ------- --------------  --------------  ------- ------- ------------------                        ---------------------
00045.MPLS                                                      AVC     0:03:00 717 220 800     37 269 831 689  31,88   30,01   DD AC3 2.0 192Kbps

Код:
Код: Выделить всё
DISC INFO:

Disc Title:     REDBULL_STRATOS_RUS
Disc Size:      37 269 831 689 bytes
Protection:     AACS
BD-Java:        No
BDInfo:         0.5.2

PLAYLIST REPORT:

Name:                   00045.MPLS
Size:                   717 220 800 bytes
Length:                 0:03:00 (h:m:s)
Total Bitrate:          31,88 Mbps
Description:

VIDEO:

Codec                   Bitrate             Description
-----                   -------             -----------
MPEG-4 AVC Video        30010 kbps          1080i / 25 fps / 16:9 / High Profile 4.1

AUDIO:

Codec                           Language        Bitrate         Description
-----                           --------        -------         -----------
Dolby Digital Audio             English         192 kbps        2.0 / 48 kHz / 192 kbps / Dolby Surround
Dolby Digital Audio             English         192 kbps        2.0 / 48 kHz / 192 kbps / Dolby Surround

SUBTITLES:

Codec                           Language        Bitrate         Description
-----                           --------        -------         -----------
Presentation Graphics           English         0,065 kbps

FILES:

Name            Time In         Length          Size            Total Bitrate
----            -------         ------          ----            -------------
00031.M2TS      0:00:00.000     0:03:00.000     717 220 800     31 869

CHAPTERS:

Number          Time In         Length          Avg Video Rate  Max 1-Sec Rate  Max 1-Sec Time  Max 5-Sec Rate  Max 5-Sec Time  Max 10Sec Rate  Max 10Sec Time  Avg Frame Size  Max Frame Size  Max Frame Time
------          -------         ------          --------------  --------------  --------------  --------------  --------------  --------------  --------------  --------------  --------------  --------------
1               0:00:00.000     0:03:00.000     30 029 kbps     35 214 kbps     00:00:00.080    31 061 kbps     00:00:00.080    30 607 kbps     00:00:00.080    150 146 bytes   384 668 bytes   00:00:00.240

STREAM DIAGNOSTICS:

File            PID             Type            Codec           Language                Seconds                 Bitrate                 Bytes           Packets
----            ---             ----            -----           --------                --------------          --------------          -------------   -----
00031.M2TS      4113 (0x1011)   0x1B            AVC                                     179,920                 30 043                  675 656 139     3 674 730
00031.M2TS      4352 (0x1100)   0x81            AC3             eng (English)           179,920                 192                     4 320 000       28 125
00031.M2TS      4353 (0x1101)   0x81            AC3             eng (English)           179,920                 192                     4 320 000       28 125
00031.M2TS      4608 (0x1200)   0x90            PGS             eng (English)           179,920                 0                       1 462           15

<---- END FORUMS PASTE ---->

QUICK SUMMARY:

Disc Title: REDBULL_STRATOS_RUS
Disc Size: 37 269 831 689 bytes
Protection: AACS
BD-Java: No
Playlist: 00045.MPLS
Size: 717 220 800 bytes
Length: 0:03:00
Total Bitrate: 31,88 Mbps
Video: MPEG-4 AVC Video / 30010 kbps / 1080i / 25 fps / 16:9 / High Profile 4.1
Audio: English / Dolby Digital Audio / 2.0 / 48 kHz / 192 kbps / Dolby Surround
Audio: English / Dolby Digital Audio / 2.0 / 48 kHz / 192 kbps / Dolby Surround
Subtitle: English / 0,065 kbps

********************
PLAYLIST: 00027.MPLS
********************

<--- BEGIN FORUMS PASTE --->Код:
Код: Выделить всё
Total   Video
Title                                                           Codec   Length  Movie Size      Disc Size       Bitrate Bitrate Main Audio Track                          Secondary Audio Track
-----                                                           ------  ------- --------------  --------------  ------- ------- ------------------                        ---------------------
00027.MPLS                                                      AVC     0:00:47 173 672 448     37 269 831 689  29,56   27,98   DTS 2.0 256Kbps (48kHz/24-bit)

Код:
Код: Выделить всё
DISC INFO:

Disc Title:     REDBULL_STRATOS_RUS
Disc Size:      37 269 831 689 bytes
Protection:     AACS
BD-Java:        No
BDInfo:         0.5.2

PLAYLIST REPORT:

Name:                   00027.MPLS
Size:                   173 672 448 bytes
Length:                 0:00:47 (h:m:s)
Total Bitrate:          29,56 Mbps
Description:

VIDEO:

Codec                   Bitrate             Description
-----                   -------             -----------
MPEG-4 AVC Video        27982 kbps          1080i / 25 fps / 16:9 / High Profile 4.1

AUDIO:

Codec                           Language        Bitrate         Description
-----                           --------        -------         -----------
DTS Audio                       English         256 kbps        2.0 / 48 kHz / 256 kbps / 24-bit

FILES:

Name            Time In         Length          Size            Total Bitrate
----            -------         ------          ----            -------------
00028.M2TS      0:00:00.000     0:00:47.000     173 672 448     29 561

CHAPTERS:

Number          Time In         Length          Avg Video Rate  Max 1-Sec Rate  Max 1-Sec Time  Max 5-Sec Rate  Max 5-Sec Time  Max 10Sec Rate  Max 10Sec Time  Avg Frame Size  Max Frame Size  Max Frame Time
------          -------         ------          --------------  --------------  --------------  --------------  --------------  --------------  --------------  --------------  --------------  --------------
1               0:00:00.000     0:00:47.000     27 982 kbps     42 423 kbps     00:00:08.080    33 790 kbps     00:00:35.279    32 045 kbps     00:00:20.120    139 912 bytes   376 068 bytes   00:00:39.639

STREAM DIAGNOSTICS:

File            PID             Type            Codec           Language                Seconds                 Bitrate                 Bytes           Packets
----            ---             ----            -----           --------                --------------          --------------          -------------   -----
00028.M2TS      4113 (0x1011)   0x1B            AVC                                     46,840                  28 078                  164 396 893     894 136
00028.M2TS      4352 (0x1100)   0x82            DTS             eng (English)           46,840                  256                     1 498 380       8 814

<---- END FORUMS PASTE ---->

QUICK SUMMARY:

Disc Title: REDBULL_STRATOS_RUS
Disc Size: 37 269 831 689 bytes
Protection: AACS
BD-Java: No
Playlist: 00027.MPLS
Size: 173 672 448 bytes
Length: 0:00:47
Total Bitrate: 29,56 Mbps
Video: MPEG-4 AVC Video / 27982 kbps / 1080i / 25 fps / 16:9 / High Profile 4.1
Audio: English / DTS Audio / 2.0 / 48 kHz / 256 kbps / 24-bit

Боцман
КУБКИ

СТАЖ

МЕДАЛИ
Награды:32

За помощь проекту (2) Лучший по количеству кубков (2) За отличные раздачи и качество (13) За подробное оформление раздач (1) За отличные комментарии (1) Верный Сид (11) За участие в конкурсах/играх (2)

Аватара пользователя
СССР
Korsar
Заслуженный Корсар-Вип+
  • Торрент
Для скачивания торрента необходимо зарегистрироваться или войти на трекер.

Вернуться в Документальные фильмы и телепередачи (HD Video)



Uptime по данным Ping-Admin.Ru - сервиса мониторинга доступности сайтов
Рейтинг@Mail.ru Голосуйте за наш сайт в каталоге Rubo.Ru