logo
Международный русскоязычный
торрент-трекер
Menu

Doublon
Поделиться с друзьями: 
Голосуй за Корсар и получи 400 дублонов
Рейтинг торрент трекеров - UpTracker.ru

Прыжок из космоса / Space Dive - The Red Bull Stratos Story (2012, Документальный, BDRip 1080p)

Сообщение Korsar » 09 дек 2016, 02:17

Прыжок из космоса / Space Dive - The Red Bull Stratos Story


Год выпуска: 2012
Страна: Великобритания
Жанр: Документальный
Продолжительность: 01:27:47
Перевод: Профессиональный (двухголосый закадровый)
Русские субтитры: нет

Режиссер: Колин Барр / Colin Barr

В ролях: Шон Дули/Shaun Dooley, Лив Шрайбер/Liev Schreiber, Феликс Баумгартнер/Felix Baumgartner

Описание: Воскресенье, 14 октября 2012 года... В этот день австрийский парашютист-экстремал Феликс Баумгартнер поднимается на высоту почти 39 километров чтобы совершить нечто невероятное - прыгнуть с парашютом. И он сделал это! Баумгартнер побил одновременно 3 мировых рекорда: самый высокий полёт на стратостате, самый высотный прыжок с парашютом и самое быстрое свободное падение. Он стал первым в истории парашютистом, который преодолел звуковой барьер. Как шла подготовка к этому прыжку? Как проходил свободный полет космического дайвера? Каким последствиям подвергся бы его организм в случае разгерметизации скафандра? И что в итоге произошло с капсулой и баллоном после завершения миссии? Ответы на эти и другие вопросы вы найдете в этом фильме.

Тип релиза: BDRip 1080p
Контейнер: MKV

Видео: H.264/AVC, 1920x1080p, 16:9, ~14Mbps, 25.000 fps
Аудио 1: Russian, AC-3, 2.0, 48 kHz, 16 bit, 192 kbps
Аудио 2: English, AC-3, 2.0, 48 kHz, 16 bit, 192 kbps
Субтитры: English (UTF-8), German (UTF-8)


General
Unique ID : 201846054914118193818983003964396650325 (0x97DA22D9847859748C795E2178D1BF55)
Complete name : E:\Space Dive - The Red Bull Stratos Story.mkv
Format : Matroska
Format version : Version 4 / Version 2
File size : 8.70 GiB
Duration : 1h 27mn
Overall bit rate mode : Variable
Overall bit rate : 14.2 Mbps
Encoded date : UTC 2013-01-26 11:00:10
Writing application : mkvmerge v6.0.0 ('Coming Up For Air') built on Jan 20 2013 09:52:00
Writing library : libebml v1.3.0 + libmatroska v1.4.0

Video
ID : 1
Format : AVC
Format/Info : Advanced Video Codec
Format profile : High@L4.1
Format settings, CABAC : Yes
Format settings, ReFrames : 3 frames
Codec ID : V_MPEG4/ISO/AVC
Duration : 1h 27mn
Bit rate mode : Variable
Bit rate : 13.8 Mbps
Maximum bit rate : 30.0 Mbps
Width : 1 920 pixels
Height : 1 080 pixels
Display aspect ratio : 16:9
Frame rate mode : Constant
Frame rate : 25.000 fps
Color space : YUV
Chroma subsampling : 4:2:0
Bit depth : 8 bits
Scan type : Progressive
Bits/(Pixel*Frame) : 0.266
Stream size : 8.29 GiB (95%)
Writing library : x264 core 129 r2245 bc13772
Encoding settings : cabac=1 / ref=4 / deblock=1:-3:-3 / analyse=0x3:0x113 / me=umh / subme=10 / psy=1 / psy_rd=1.00:0.00 / mixed_ref=1 / me_range=28 / chroma_me=1 / trellis=2 / 8x8dct=1 / cqm=0 / deadzone=21,11 / fast_pskip=1 / chroma_qp_offset=-2 / threads=6 / lookahead_threads=1 / sliced_threads=0 / slices=4 / nr=0 / decimate=1 / interlaced=0 / bluray_compat=1 / constrained_intra=0 / bframes=3 / b_pyramid=1 / b_adapt=2 / b_bias=0 / direct=3 / weightb=1 / open_gop=1 / weightp=1 / keyint=250 / keyint_min=1 / scenecut=40 / intra_refresh=0 / rc_lookahead=225 / rc=2pass / mbtree=1 / bitrate=13800 / ratetol=1.0 / qcomp=0.70 / qpmin=0 / qpmax=69 / qpstep=4 / cplxblur=20.0 / qblur=0.5 / vbv_maxrate=30000 / vbv_bufsize=13800 / nal_hrd=vbr / ip_ratio=1.40 / aq=1:1.00
Language : English
Default : Yes
Forced : No

Audio #1
ID : 2
Format : AC-3
Format/Info : Audio Coding 3
Mode extension : CM (complete main)
Format settings, Endianness : Big
Codec ID : A_AC3
Duration : 1h 27mn
Bit rate mode : Constant
Bit rate : 192 Kbps
Channel(s) : 2 channels
Channel positions : Front: L R
Sampling rate : 48.0 KHz
Bit depth : 16 bits
Compression mode : Lossy
Stream size : 121 MiB (1%)
Language : Russian
Default : Yes
Forced : No

Audio #2
ID : 3
Format : AC-3
Format/Info : Audio Coding 3
Mode extension : CM (complete main)
Format settings, Endianness : Big
Codec ID : A_AC3
Duration : 1h 27mn
Bit rate mode : Constant
Bit rate : 192 Kbps
Channel(s) : 2 channels
Channel positions : Front: L R
Sampling rate : 48.0 KHz
Bit depth : 16 bits
Compression mode : Lossy
Stream size : 121 MiB (1%)
Language : English
Default : No
Forced : No

Text #1
ID : 4
Format : UTF-8
Codec ID : S_TEXT/UTF8
Codec ID/Info : UTF-8 Plain Text
Language : English
Default : No
Forced : No

Text #2
ID : 5
Format : UTF-8
Codec ID : S_TEXT/UTF8
Codec ID/Info : UTF-8 Plain Text
Language : German
Default : No
Forced : No

Menu
00:00:00.000 : :00:00:00.000
00:05:08.760 : :00:05:08.760
00:08:10.440 : :00:08:10.440
00:11:53.040 : :00:11:53.040
00:14:31.880 : :00:14:31.880
00:24:18.760 : :00:24:18.760
00:25:55.360 : :00:25:55.360
00:32:28.840 : :00:32:28.840
00:35:58.320 : :00:35:58.320
00:43:47.640 : :00:43:47.640
00:44:30.240 : :00:44:30.240
00:47:21.240 : :00:47:21.240
00:50:59.400 : :00:50:59.400
00:56:36.600 : :00:56:36.600
00:58:44.720 : :00:58:44.720
01:01:55.160 : :01:01:55.160
01:05:13.640 : :01:05:13.640
01:27:21.400 : :01:27:21.400

Боцман
КУБКИ

СТАЖ

МЕДАЛИ
Награды:32

За помощь проекту (2) Лучший по количеству кубков (2) За отличные раздачи и качество (13) За подробное оформление раздач (1) За отличные комментарии (1) Верный Сид (11) За участие в конкурсах/играх (2)

Аватара пользователя
СССР
Korsar
Заслуженный Корсар-Вип+
  • Торрент
Для скачивания торрента необходимо зарегистрироваться или войти на трекер.

Вернуться в Документальные фильмы и телепередачи (HD Video)



Uptime по данным Ping-Admin.Ru - сервиса мониторинга доступности сайтов
Рейтинг@Mail.ru Голосуйте за наш сайт в каталоге Rubo.Ru