logo
Международный русскоязычный
торрент-трекер
Menu
Doublon
Поделиться с друзьями: 
Голосуй за Корсар и получи 500 дублонов
Рейтинг торрент трекеров - UpTracker.ru

Прекрасная планета / A Beautiful Planet (2016, документальный, UHD BDRemux 2160p) | HDR10+ | IMAX

Сообщение kisa1980 » 02 фев 2019, 20:53

Название: Прекрасная планета
Оригинальное: A Beautiful Planet
Год выхода: 2016
Жанр: Документальный
Режиссер: Тони Майерс
В ролях: Дженнифер Лоуренс, Скотт Келли, Саманта Кристофоретти

О фильме: На протяжении миллиардов лет на Земле сформировались условия для существования множества органических форм жизни, включая человека. Миллионы лет планета преобразовывалась сама, под действием могущественных сил неукротимой дикой природы, изменивших её за это время до неузнаваемости. Но в последнее время к процессам, изменяющим не только поверхность, но и облик Земли, всё чаще становится причастен человек, почувствовавший себя настоящим хозяином земного шара. Благодаря помощи сотрудников НАСА и отважных астронавтов, пребывающих на борту Международной космической станции, каждый из нас может своими глазами увидеть, как выглядит Земля из космоса, а также оценить влияние человека на окружающую среду, чтобы понять, что же мы можем изменить, ради нашего будущего.



Страна: США
Продолжительность: 0:46:17
Перевод: Любительский (двухголосый, закадровый)

Качество: UHD BDRemux 2160p
Видео: 3840x2160, 45,6 Мбит/с, 24 кадр/с
Аудио 1: Русский АС3, 2 ch, 224 Кбит/с
Аудио 2: Английский DTS-HD MA, 8 ch, 7848 Кбит/с
Аудио 3: Английский АС3, 6 ch, 640 Кбит/с
Субтитры: Нет

Релиз от:


Общее
Уникальный идентификатор : A.Beautiful.Planet.2016.2160p.UHD.BDRemux.IMAX.Enhanced.HDR10+.HEVC.DTS-X.IVA.(RUS.ENG).ExKinoRay.mkv
Формат : Matroska
Версия формата : Version 4
Размер файла : 17,6 Гбайт
Продолжительность : 46 м. 17 с.
Режим общего битрейта : Переменный
Общий поток : 54,3 Мбит/сек
Название фильма : IMAX: Прекрасная планета / A Beautiful Planet ( 2016 ) HDR10+ | IVA.ExKinoRay
Дата кодирования : UTC 2019-01-12 16:50:28
Программа кодирования : mkvmerge v30.1.0 ('Forever And More') 64-bit
Библиотека кодирования : libebml v1.3.6 + libmatroska v1.4.9
Обложка : Yes
Attachments : cover

Видео
Идентификатор : 1
Формат : HEVC
Формат/Информация : High Efficiency Video Coding
Коммерческое название : HDR10
Профиль формата : Main 10@L5.1@High
Идентификатор кодека : V_MPEGH/ISO/HEVC
Продолжительность : 46 м. 17 с.
Битрейт : 45,6 Мбит/сек
Ширина : 3840 пикселей
Высота : 2160 пикселей
Соотношение сторон : 16:9
Режим частоты кадров : Постоянный
Частота кадров : 23,976 (24000/1001) кадра/сек
Цветовое пространство : YUV
Субдискретизация насыщенности : 4:2:0 (Type 2)
Битовая глубина : 10 бит
Бит/(Пиксели*Кадры) : 0.229
Размер потока : 14,8 Гбайт (84%)
Заголовок : A.Beautiful.Planet.2016.2160p.UHD.Blu-ray.IMAX.Enhanced.HDR10+
Язык : English
Default : Да
Forced : Нет
Цветовой диапазон : Limited
Основные цвета : BT.2020
Характеристики трансфера : PQ
Коэффициенты матрицы : BT.2020 non-constant
MasteringDisplay_ColorPrimaries : R: x=0.708000 y=0.291980, G: x=0.170000 y=0.797000, B: x=0.131000 y=0.046000, White point: x=0.312680 y=0.329000
MasteringDisplay_Luminance : min: 0.0000 cd/m2, max: 1000 cd/m2
MaxCLL : 2279 cd/m2
MaxFALL : 256 cd/m2

Аудио #1
Идентификатор : 2
Формат : AC-3
Формат/Информация : Audio Coding 3
Коммерческое название : Dolby Digital
Идентификатор кодека : A_AC3
Продолжительность : 46 м. 17 с.
Вид битрейта : Постоянный
Битрейт : 224 Кбит/сек
Каналы : 2 канала
Channel layout : L R
Частота : 48,0 КГц
Частота кадров : 31,250 кадров/сек (1536 SPF)
Битовая глубина : 16 бит
Метод сжатия : С потерями
Размер потока : 74,2 Мбайт (0%)
Заголовок : DVO
Язык : Russian
ServiceKind/String : Complete Main
Default : Да
Forced : Нет

Аудио #2
Идентификатор : 3
Формат : DTS XLL
Формат/Информация : Digital Theater Systems
Коммерческое название : DTS-HD Master Audio
Идентификатор кодека : A_DTS
Продолжительность : 46 м. 17 с.
Вид битрейта : Переменный
Битрейт : 7848 Кбит/сек
Каналы : 8 каналов
Channel layout : C L R LFE Lb Rb Lss Rss
Частота : 48,0 КГц
Частота кадров : 93,750 кадра/сек (512 SPF)
Битовая глубина : 24 бит
Метод сжатия : Без потерь
Размер потока : 2,54 Гбайт (14%)
Заголовок : Original
Язык : English
Default : Нет
Forced : Нет

Аудио #3
Идентификатор : 4
Формат : AC-3
Формат/Информация : Audio Coding 3
Коммерческое название : Dolby Digital
Идентификатор кодека : A_AC3
Продолжительность : 46 м. 17 с.
Вид битрейта : Постоянный
Битрейт : 640 Кбит/сек
Каналы : 6 каналов
Channel layout : L R C LFE Ls Rs
Частота : 48,0 КГц
Частота кадров : 31,250 кадров/сек (1536 SPF)
Битовая глубина : 16 бит
Метод сжатия : С потерями
Размер потока : 212 Мбайт (1%)
Заголовок : Original
Язык : English
ServiceKind/String : Complete Main
Default : Нет
Forced : Нет

Меню
00:00:00.000 : :Глава 01
00:05:37.462 : :Глава 02
00:16:51.260 : :Глава 03
00:28:30.083 : :Глава 04
00:39:35.873 : :Глава 05
00:44:24.203 : :Глава 06
КУБКИ

СТАЖ

МЕДАЛИ
Награды:108

За активную помощь проекту (12) Лучший по количеству кубков (3) За отличные раздачи и качество (41) За подробное оформление раздач (8) За отличные комментарии (10) Почётный форумчанин (3) Верный Сид (28) За участие в конкурсах/играх (2)

Аватара пользователя
Тортуга
kisa1980
Главный помощник Администратора-Корсар
  • Торрент
Для скачивания торрента необходимо зарегистрироваться или войти на трекер.

Сообщение filbi1976 » 04 фев 2019, 00:09

Красотища! :10 balov:
Серёга, спасибо! :-drinks:
The Show Must Go On
Посмотреть товар в профиле пользователя

Нажмите на изображение, чтобы увидеть в полный размер  
1 шт.
Нажмите на изображение, чтобы увидеть в полный размер  
1 шт.
Нажмите на изображение, чтобы увидеть в полный размер  
1 шт.
Нажмите на изображение, чтобы увидеть в полный размер  
1 шт.
Нажмите на изображение, чтобы увидеть в полный размер  
1 шт.
Нажмите на изображение, чтобы увидеть в полный размер  
1 шт.
Нажмите на изображение, чтобы увидеть в полный размер  
1 шт.
Нажмите на изображение, чтобы увидеть в полный размер  
1 шт.
Нажмите на изображение, чтобы увидеть в полный размер  
1 шт.
Нажмите на изображение, чтобы увидеть в полный размер  
1 шт.
Нажмите на изображение, чтобы увидеть в полный размер  
1 шт.
Нажмите на изображение, чтобы увидеть в полный размер  
1 шт.
Нажмите на изображение, чтобы увидеть в полный размер  
1 шт.
Нажмите на изображение, чтобы увидеть в полный размер  
1 шт.
Нажмите на изображение, чтобы увидеть в полный размер  
1 шт.
КУБКИ

СТАЖ

МЕДАЛИ
Награды:152

За активную помощь проекту (5) За отличные раздачи и качество (100) За подробное оформление раздач (3) За отличные комментарии (7) Почётный форумчанин (2) Верный Сид (31) За участие в конкурсах/играх (2) 3 место в конкурсах/играх (1)

Аватара пользователя
Тортуга
filbi1976
Администратор-Корсар


Вернуться в Документальные (4К)



Uptime по данным Ping-Admin.Ru - сервиса мониторинга доступности сайтов
Рейтинг@Mail.ru