logo
Международный русскоязычный
торрент-трекер
Menu
Магазин-KorsaRDoublon
Поделиться с друзьями: 
Голосуй за Корсар и получай дублоны
Рейтинг торрент трекеров - UpTracker.ru

Между любовью и ненавистью / Серии: 1-8 из 8 (2016, мелодрама, SATRip-AVC)

Сообщение aleksan55 » 28 дек 2016, 13:54

Год выпуска: 2016
Производство:Украина, Кинокомпания УПС
Жанр: мелодрама
Продолжительность: 00:47:00
Субтитры: украинские,вшитые

Режиссёр: Александр Итыгилов

В ролях:Елена Шилова , Артём Карасев, Николай Боклан, Станислав Боклан, Дарина Лобода, Станислав Мельник, Константин Корецкий, Валентин Томусяк, Михаил Жонин, Валерий Астахов


Описание:Две подруги, Лиза и Таня со школьной скамьи любили одного парня, Пашу. Беременная от Паши Таня погибает в аварии накануне свадьбы, но ее ребенка удается спасти. Отец Татьяны не позволяет Павлу видеться с дочерью. Нанятый отцом Татьяны киллер (Макс), убивает человека, виновного в гибели Татьяны. Макс пойман и осужден. При побеге случайно встречает Лизу и насилует ее. Лиза от него беременеет. Она не решается на аборт, и их с Павлом ждет нелегкий путь к любви и семейному счастью..





Качество: SATRip-AVC
Формат: MKV
Видео кодек: H.264
Аудио кодек: AC3
Видео: MPEG4 Video (H264), 720x400, 25fps,1400 Kbps,bit/pixel 0.194
Аудио: AC3 48000Hz, stereo, 192kbps,2 ch

Общее
Уникальный идентификатор : 249498936251879928996999664768532506981 (0xBBB3BF4B40DED7A89BF2562F0AEA6965)
Полное имя : F:\Между любовью и ненавистью\01 серия_Между любовью и ненавистью_rip by_Aleksan55.mkv
Формат : Matroska
Версия формата : Version 2
Размер файла : 544 Мбайт
Продолжительность : 47 м.
Общий поток : 1594 Кбит/сек
Дата кодирования : UTC 2016-12-27 23:01:41
Программа кодирования : mkvmerge v7.8.0 ('River Man') 32bit built on Apr 3 2015 12:11:22
Библиотека кодирования : libebml v1.3.1 + libmatroska v1.4.2

Видео
Идентификатор : 1
Формат : AVC
Формат/Информация : Advanced Video Codec
Профиль формата : High@L3.1
Параметр CABAC формата : Да
Параметр ReFrames формата : 14 кадров
Идентификатор кодека : V_MPEG4/ISO/AVC
Продолжительность : 47 м.
Битрейт : 1400 Кбит/сек
Ширина : 720 пикселей
Высота : 400 пикселей
Соотношение сторон : 16:9
Режим частоты кадров : Постоянный
Частота кадров : 25,000 кадров/сек
Цветовое пространство : YUV
Субдискретизация насыщенности : 4:2:0
Битовая глубина : 8 бит
Тип развёртки : Прогрессивная
Бит/(Пиксели*Кадры) : 0.194
Размер потока : 467 Мбайт (86%)
Библиотека кодирования : x264 core 148 r2638 7599210
Настройки программы : cabac=1 / ref=14 / deblock=1:-1:-1 / analyse=0x3:0x133 / me=umh / subme=9 / psy=1 / psy_rd=1.00:0.15 / mixed_ref=0 / me_range=32 / chroma_me=1 / trellis=2 / 8x8dct=1 / cqm=0 / deadzone=21,11 / fast_pskip=0 / chroma_qp_offset=-3 / threads=3 / lookahead_threads=3 / sliced_threads=0 / nr=0 / decimate=0 / interlaced=0 / bluray_compat=0 / constrained_intra=0 / bframes=14 / b_pyramid=2 / b_adapt=1 / b_bias=0 / direct=3 / weightb=1 / open_gop=0 / weightp=2 / keyint=250 / keyint_min=25 / scenecut=40 / intra_refresh=0 / rc_lookahead=65 / rc=2pass / mbtree=1 / bitrate=1400 / ratetol=1.0 / qcomp=0.85 / qpmin=0 / qpmax=40 / qpstep=4 / cplxblur=20.0 / qblur=0.5 / ip_ratio=1.40 / aq=1:1.20
Default : Да
Forced : Нет
Цветовой диапазон : Limited
Основные цвета : BT.601 PAL
Характеристики трансфера : BT.470 System B, BT.470 System G
Коэффициенты матрицы : BT.601

Аудио
Идентификатор : 2
Формат : AC-3
Формат/Информация : Audio Coding 3
Расширение режима : CM (complete main)
Параметр Endianness формата : Big
Идентификатор кодека : A_AC3
Продолжительность : 47 м.
Вид битрейта : Постоянный
Битрейт : 192 Кбит/сек
Каналы : 2 канала
Расположение каналов : Front: L R
Частота : 48,0 КГц
Метод сжатия : С потерями
Размер потока : 65,5 Мбайт (12%)
Default : Да
Forced : Нет

Внимание! Раздача ведётся путём добавления новых серий; при каждом добавлении создаётся новый торрент.
Чтобы начать докачку новой серии, пользователям необходимо сделать следующее:
1. Остановить скачивание;
2. Удалить старый торрент у себя из клиента (старые серии удалять не надо);
3. Скачать новый торрент и запустить его у себя в клиенте вместо старого, при этом указать клиенту путь в старую папку куда и должно происходить скачивание новых серий. Ваш клиент при этом должен произвести хеширование (проверку) старой папки и будет докачивать только те серии, которых у вас ещё нет. Старые серии при этом не удаляются, а продолжают раздаваться! Eсли вы уже удалили старые серии, то предотвратить повторную закачку старых серий можно, отжав галочку в соответствующих местах при запуске нового торрента.
Аватара пользователя
aleksan55
Уважаемый Релизёр-Корсар
 
 

Награды: 13
За помощь проекту (1) Лучший по количеству кубков (5) За отличные раздачи (5) Верный Сид (2)
  • Торрент
Для скачивания торрента необходимо зарегистрироваться или войти на трекер.

Сообщение aleksan55 » 29 дек 2016, 18:50

Добавлены 5-6 серия.
Аватара пользователя
aleksan55
Уважаемый Релизёр-Корсар
 
 

Награды: 13
За помощь проекту (1) Лучший по количеству кубков (5) За отличные раздачи (5) Верный Сид (2)

Сообщение aleksan55 » 30 дек 2016, 14:46

Добавлены 7-8 серия.
Аватара пользователя
aleksan55
Уважаемый Релизёр-Корсар
 
 

Награды: 13
За помощь проекту (1) Лучший по количеству кубков (5) За отличные раздачи (5) Верный Сид (2)


Вернуться в Русские сериалы



мониторинг сайтов