logo
Международный русскоязычный
торрент-трекер
Menu
Магазин-KorsaRDoublon
Поделиться с друзьями: 
Голосуй за Корсар и получай дублоны
Рейтинг торрент трекеров - UpTracker.ru

Про Федота-стрельца, удалого молодца (1988, телеспектакль, сказка, DVDRip-AVC) - KORSAR

Сообщение filbi1976 » 24 дек 2016, 16:22

Название: Про Федота-стрельца, удалого молодца
Год выхода: 1988
Жанр: телеспектакль, сказка
Режиссер: Зинаида Алиева
В ролях: Леонид Филатов

О фильме: Моноспектакль. «Сказка про Федота-стрельца, удалого молодца» — самое известное поэтическое произведение Леонида Филатова. Сюжет произведения традиционен для многих русских народных сказок: царь, желая извести стрельца и жениться на его супруге Марусе, придумывает для героя испытания. Самое сложное — принести то, чего не может быть…

Выпущено: СССР
Продолжительность: 01:22:09
Перевод: не требуется

Файл
Кодек: х264
Качество: DVDRip-AVC
Видео: MPEG-4 AVC, 700x574@746x574, 25 fps, 2750 Кбит/с
Звук: AC3, 6 ch, 448 Кбит/с, AC3, 2 ch, 192 Кбит/с


  • x264 [info]: frame I:381 Avg QP:17.67 size: 69898
  • x264 [info]: frame P:17683 Avg QP:19.47 size: 36656
  • x264 [info]: frame B:65099 Avg QP:21.32 size: 7200
===============================================================
Общее
Уникальный идентификатор : 178754093150400345159564721176433242536 (0x867AC93BC0DD2045A70B75D1BB2DB1A8)
Полное имя : D:\Про Федота-стрельца, удалого молодца_1988-DVDRip-AVC.mkv
Формат : Matroska
Версия формата : Version 2
Размер файла : 1,31 Гбайт
Продолжительность : 55 м. 26 с.
Общий поток : 3392 Кбит/сек
Дата кодирования : UTC 2016-12-24 13:07:00
Программа кодирования : mkvmerge v5.8.0 ('No Sleep / Pillow') built on Sep 2 2012 15:37:04
Библиотека кодирования : libebml v1.2.3 + libmatroska v1.3.0

Видео
Идентификатор : 1
Формат : AVC
Формат/Информация : Advanced Video Codec
Профиль формата : High@L4.1
Параметр CABAC формата : Да
Параметр ReFrames формата : 15 кадров
Идентификатор кодека : V_MPEG4/ISO/AVC
Продолжительность : 55 м. 26 с.
Битрейт : 2750 Кбит/сек
Ширина : 700 пикселей
Высота : 574 пикселя
Соотношение сторон : 4:3
Соотношение сторон в оригинале : 4:3
Режим частоты кадров : Постоянный
Частота кадров : 25,000 кадров/сек
Цветовое пространство : YUV
Субдискретизация насыщенности : 4:2:0
Битовая глубина : 8 бит
Тип развёртки : Прогрессивная
Бит/(Пиксели*Кадры) : 0.274
Размер потока : 1,04 Гбайт (79%)
Заголовок : korsar.tv
Библиотека кодирования : x264 core 148 r2721kMod 72d53ab
Настройки программы : cabac=1 / ref=15 / deblock=1:-2:-2 / analyse=0x3:0x133 / me=umh / subme=10 / psy=1 / fade_compensate=0.00 / psy_rd=1.05:0.10 / mixed_ref=1 / me_range=32 / chroma_me=1 / trellis=2 / 8x8dct=1 / cqm=0 / deadzone=21,11 / fast_pskip=0 / chroma_qp_offset=-3 / threads=12 / lookahead_threads=2 / sliced_threads=0 / nr=0 / decimate=0 / interlaced=0 / bluray_compat=0 / constrained_intra=0 / fgo=0 / bframes=8 / b_pyramid=2 / b_adapt=2 / b_bias=0 / direct=3 / weightb=1 / open_gop=0 / weightp=2 / keyint=250 / keyint_min=25 / scenecut=40 / intra_refresh=0 / rc=2pass / mbtree=0 / bitrate=2750 / ratetol=1.0 / qcomp=0.63 / qpmin=0 / qpmax=39 / qpstep=4 / cplxblur=20.0 / qblur=0.5 / ip_ratio=1.20 / pb_ratio=1.30 / aq=1:1.00
Язык : English
Default : Да
Forced : Нет
Цветовой диапазон : Limited
Основные цвета : BT.601 PAL
Характеристики трансфера : BT.470 System B, BT.470 System G
Коэффициенты матрицы : BT.601

Аудио #1
Идентификатор : 2
Формат : AC-3
Формат/Информация : Audio Coding 3
Расширение режима : CM (complete main)
Параметр Endianness формата : Big
Идентификатор кодека : A_AC3
Продолжительность : 55 м. 26 с.
Вид битрейта : Постоянный
Битрейт : 448 Кбит/сек
Каналы : 6 каналов
Расположение каналов : Front: L C R, Side: L R, LFE
Частота : 48,0 КГц
Частота кадров : 31,250 кадров/сек (1536 spf)
Битовая глубина : 16 бит
Метод сжатия : С потерями
Размер потока : 178 Мбайт (13%)
Язык : Russian
Default : Да
Forced : Нет

Аудио #2
Идентификатор : 3
Формат : AC-3
Формат/Информация : Audio Coding 3
Расширение режима : CM (complete main)
Параметр Endianness формата : Big
Идентификатор кодека : A_AC3
Продолжительность : 55 м. 26 с.
Вид битрейта : Постоянный
Битрейт : 192 Кбит/сек
Каналы : 2 канала
Расположение каналов : Front: L R
Частота : 48,0 КГц
Частота кадров : 31,250 кадров/сек (1536 spf)
Битовая глубина : 16 бит
Метод сжатия : С потерями
Размер потока : 76,1 Мбайт (6%)
Язык : Russian
Default : Нет
Forced : Нет

Аватара пользователя
filbi1976
Главный-Корсар
 
 

Награды: 20
За отличные раздачи и качество (14) Почётный форумчанин (1) За участие в конкурсах (1) Верный Сид (4)
  • Торрент
Для скачивания торрента необходимо зарегистрироваться или войти на трекер.

Сообщение verybigpapa » 24 дек 2016, 17:51

Гениальная сказка гениального автора и не менее гениального исполнителя! :good: Огромное спасибо, уважаемый filbi1976! :hi:
Улыбайтесь, господа! Улыбайтесь!
Аватара пользователя
verybigpapa
Заслуженный Корсар-Вип
 
 

Награды: 13
За помощь проекту (5) Лучший по количеству кубков (2) За отличные комментарии (2) Верный Сид (4)

Сообщение Digor » 24 дек 2016, 19:18

Спасибо огромное, Сергей! :hi:
Как раз сегодня Филатов отмечал бы свое 70-летие.
Аватара пользователя
Digor
Заслуженный Корсар-Вип
 
 

Награды: 4
За помощь проекту (1) Лучший по количеству кубков (1) Верный Сид (2)


Вернуться в Фильмы-спектакли, театральные постановки



Uptime по данным Ping-Admin.Ru - сервиса мониторинга доступности сайтов