logo
Международный русскоязычный
торрент-трекер

SHOP-KorsaRDoublon

Поделиться с друзьями: 

Спасайся, брат! / 4 серии из 4 (2015, Боевик, драма, HDTVRip-AVC)

Сообщение Sanechek » 09 янв 2017, 18:58

Название: Спасайся, брат!
Год выхода: 2015
Жанр: Боевик, драма
Режиссер: Антон Сиверс
В ролях: Александр Лыков, Алексей Шевченков, Роман Павлушев, Марина Доможирова, Геннадий Скоморохов, Валерий Немешаев, Кирилл Балобан, Александр Рязанцев, Владислав Комаров, Игорь Лепихин, Павел Поляков (III)

О фильме: Из колонии, расположенной неподалеку от монастыря, бежит Егор Сурин. Он хочет отомстить бывшему другу, который предал его, дав против Егора показания в суде, и жене, которая не дождалась его из колонии. Егор, спасаясь от погони, выходит к скиту, где молится отец Арсений. Ветеран афганской войны, он уже много лет живет в монастыре. Причину, по которой он ушел от мира, отец Арсений тщательно скрывает. Но история, которая произошла с ним на войне, до сих пор не дает ему покоя. Егор Сурин рассказывает монаху свою историю, не скрывая, что им движет исключительно жажда мести. Отговорить Егора у отца Арсения не получается, поэтому он решает идти вместе с ним в город. Возможно, по дороге монаху все-таки удастся вразумить Егора. Но на беглого зека и странствующего монаха объявлена охота. Начальник оперативной части колонии отдает приказ своим сотрудникам - живым Егора не брать...



Выпущено: Россия, ООО «Триикс Медиа»
Продолжительность: 4 х ~ 00:43:00
Перевод: не требуется

Файл
Кодек: х264
Качество: HDTVRip-AVC
Видео: MPEG-4 AVC, 1024x576, 25 fps, 3000 Кбит/с
Звук: AC3, 2 ch, 256 Кбит/с

Общее
Уникальный идентификатор : 232845619433145183570987196596116955590 (0xAF2C6F61F6E63292A67D240F150EA1C6)
Полное имя : D:\Спасайся, брат! (2015)\4 серия.mkv
Формат : Matroska
Версия формата : Version 2
Размер файла : 978 Мбайт
Продолжительность : 41 м. 57 с.
Общий поток : 3259 Кбит/сек
Дата кодирования : UTC 2017-01-06 20:10:24
Программа кодирования : mkvmerge v7.8.0 ('River Man') 32bit built on Apr 3 2015 12:11:22
Библиотека кодирования : libebml v1.3.1 + libmatroska v1.4.2

Видео
Идентификатор : 1
Формат : AVC
Формат/Информация : Advanced Video Codec
Профиль формата : High@L4.1
Параметр CABAC формата : Да
Параметр ReFrames формата : 12 кадров
Идентификатор кодека : V_MPEG4/ISO/AVC
Продолжительность : 41 м. 57 с.
Битрейт : 3000 Кбит/сек
Ширина : 1024 пикселя
Высота : 576 пикселей
Соотношение сторон : 16:9
Режим частоты кадров : Постоянный
Частота кадров : 25,000 кадров/сек
Цветовое пространство : YUV
Субдискретизация насыщенности : 4:2:0
Битовая глубина : 8 бит
Тип развёртки : Прогрессивная
Бит/(Пиксели*Кадры) : 0.203
Размер потока : 882 Мбайт (90%)
Библиотека кодирования : x264 core 146 r2538 121396c
Настройки программы : cabac=1 / ref=12 / deblock=1:-2:-2 / analyse=0x3:0x113 / me=umh / subme=10 / psy=1 / psy_rd=1.05:0.10 / mixed_ref=1 / me_range=32 / chroma_me=1 / trellis=2 / 8x8dct=1 / cqm=0 / deadzone=21,11 / fast_pskip=0 / chroma_qp_offset=-3 / threads=3 / lookahead_threads=1 / sliced_threads=0 / nr=0 / decimate=0 / interlaced=0 / bluray_compat=0 / constrained_intra=0 / bframes=16 / b_pyramid=2 / b_adapt=2 / b_bias=0 / direct=3 / weightb=1 / open_gop=0 / weightp=2 / keyint=250 / keyint_min=25 / scenecut=40 / intra_refresh=0 / rc=2pass / mbtree=0 / bitrate=3000 / ratetol=1.0 / qcomp=0.63 / qpmin=0 / qpmax=69 / qpstep=4 / cplxblur=20.0 / qblur=0.5 / ip_ratio=1.25 / pb_ratio=1.30 / aq=1:1.00
Язык : Russian
Default : Да
Forced : Нет
Цветовой диапазон : Limited
Основные цвета : BT.709
Характеристики трансфера : BT.709
Коэффициенты матрицы : BT.709

Аудио
Идентификатор : 2
Формат : AC-3
Формат/Информация : Audio Coding 3
Расширение режима : CM (complete main)
Параметр Endianness формата : Big
Идентификатор кодека : A_AC3
Продолжительность : 41 м. 57 с.
Вид битрейта : Постоянный
Битрейт : 256 Кбит/сек
Каналы : 2 канала
Расположение каналов : Front: L R
Частота : 48,0 КГц
Частота кадров : 31,250 кадров/сек (1536 spf)
Битовая глубина : 16 бит
Метод сжатия : С потерями
Размер потока : 76,8 Мбайт (8%)
Язык : Russian
Default : Да
Forced : Нет
Последний раз редактировалось Sanechek 10 фев 2017, 13:17, всего редактировалось 1 раз.
Аватара пользователя
Sanechek
Главный Модератор-Корсар
 
Месяцев на трекере: 3Месяцев на трекере: 3Месяцев на трекере: 3
 
Зарегистрирован: 10 ноя 2016, 12:29
В кошельке: 7,025.00
Банк: 580.00
Откуда: СССР
Флаги:
СССР-2

Награды: 2
За отличные раздачи (2)
  • Торрент
Автор: Sanechek Хэш: ---
Добавлен: 09 янв 2017, 18:58 Приватный: Нет (DHT включён)
Статус: Проверен
Размер: 3.85 ГБ (4 130 352 691 байт)
Изменил:
---
Скачали: 2 (Раздающих: 100%)
Причина:
---
Здоровье: 100%
Сидеров: 9 Личеров: 2
Скорость раздачи: 0 байт/сек Скорость скачивания: 0 байт/сек
Последний сидер: 27 минут 36 секунд назад Последний личер: 19 часов 45 минут 54 секунды назад
Для скачивания торрента необходимо зарегистрироваться или войти на трекер.

Сообщение verybigpapa » 09 янв 2017, 19:24

Очень хороший фильм! Большое спасибо, уважаемый Sanechek.
Улыбайтесь, господа! Улыбайтесь!
Аватара пользователя
verybigpapa
Корсар-Вип
 
Месяцев на трекере: 6Месяцев на трекере: 6Месяцев на трекере: 6Месяцев на трекере: 6Месяцев на трекере: 6Месяцев на трекере: 6
 
Зарегистрирован: 03 авг 2016, 19:00
В кошельке: 512.00
Банк: 0.00
Откуда: СССР
Флаги:
СССР

Награды: 1
За помощь проекту (1)

Сообщение kwazar312 » 09 янв 2017, 19:37

Отличный фильм.Большое спасибо за раздачу.
Аватара пользователя
kwazar312
Уважаемый Корсар
 
Месяцев на трекере: 6Месяцев на трекере: 6Месяцев на трекере: 6Месяцев на трекере: 6Месяцев на трекере: 6Месяцев на трекере: 6
 
Зарегистрирован: 08 авг 2016, 09:50
В кошельке: 1,836.00

Награды: 2
За отличные комментарии (1) Верный Сид (1)

Сообщение kwazar312 » 11 янв 2017, 23:37

Хотел сегодня посмотреть скачанный фильм,но 1-я и 2-я серии не открываются,очень обидно.Если кто-то может сказать,что это только у меня или такие файлы в записи.Сейчас пекачиваю,может что-то изменится.
Аватара пользователя
kwazar312
Уважаемый Корсар
 
Месяцев на трекере: 6Месяцев на трекере: 6Месяцев на трекере: 6Месяцев на трекере: 6Месяцев на трекере: 6Месяцев на трекере: 6
 
Зарегистрирован: 08 авг 2016, 09:50
В кошельке: 1,836.00

Награды: 2
За отличные комментарии (1) Верный Сид (1)

Сообщение verybigpapa » 11 янв 2017, 23:53

kwazar312 писал(а):Хотел сегодня посмотреть скачанный фильм,но 1-я и 2-я серии не открываются,очень обидно.Если кто-то может сказать,что это только у меня или такие файлы в записи.Сейчас пекачиваю,может что-то изменится.

Я качал этот фильм одним из первых. У меня все открывается. Никаких глюков. Качество отличное. :good:
Улыбайтесь, господа! Улыбайтесь!
Аватара пользователя
verybigpapa
Корсар-Вип
 
Месяцев на трекере: 6Месяцев на трекере: 6Месяцев на трекере: 6Месяцев на трекере: 6Месяцев на трекере: 6Месяцев на трекере: 6
 
Зарегистрирован: 03 авг 2016, 19:00
В кошельке: 512.00
Банк: 0.00
Откуда: СССР
Флаги:
СССР

Награды: 1
За помощь проекту (1)

Сообщение kwazar312 » 11 янв 2017, 23:58

Только что перекачал фильм,тот же самый дефект-три видеовлеера не могут раскрыть 1-ю и 2-ю серии.
Аватара пользователя
kwazar312
Уважаемый Корсар
 
Месяцев на трекере: 6Месяцев на трекере: 6Месяцев на трекере: 6Месяцев на трекере: 6Месяцев на трекере: 6Месяцев на трекере: 6
 
Зарегистрирован: 08 авг 2016, 09:50
В кошельке: 1,836.00

Награды: 2
За отличные комментарии (1) Верный Сид (1)

Сообщение Sanechek » 12 янв 2017, 03:02

kwazar312 писал(а):Только что перекачал фильм,тот же самый дефект-три видеовлеера не могут раскрыть 1-ю и 2-ю серии.

Только что открывал плеерами KMPlayer, Media Player Classic и родным Windows Media Player - всё прекрасно открывается, Вам наверное надо кодеки обновить.
Аватара пользователя
Sanechek
Главный Модератор-Корсар
 
Месяцев на трекере: 3Месяцев на трекере: 3Месяцев на трекере: 3
 
Зарегистрирован: 10 ноя 2016, 12:29
В кошельке: 7,025.00
Банк: 580.00
Откуда: СССР
Флаги:
СССР-2

Награды: 2
За отличные раздачи (2)

Сообщение kwazar312 » 12 янв 2017, 09:40

Большое спасибо за консультацию,что-то наверное с компьютером,потому-что после обновления ничего не изменилось.В телевизоре плеер все открывает прекрасно,на другом компьютере VLC-плеер все открывает.Большое спасибо за раздачу хорошего фильма.Качество картинки отличное.
Аватара пользователя
kwazar312
Уважаемый Корсар
 
Месяцев на трекере: 6Месяцев на трекере: 6Месяцев на трекере: 6Месяцев на трекере: 6Месяцев на трекере: 6Месяцев на трекере: 6
 
Зарегистрирован: 08 авг 2016, 09:50
В кошельке: 1,836.00

Награды: 2
За отличные комментарии (1) Верный Сид (1)


Вернуться в Русские сериалы

Выключите ADBLOCK!
проверить сайт
cron