logo
Международный русскоязычный
торрент-трекер

SHOP-KorsaRDoublon

Поделиться с друзьями: 

Joe Satriani - Playlist: The Very Best Of Joe Satriani - (2010, Instrumental Guitar Rock, Hard Rock, Progressive Rock) FLAC, lossless

Сообщение Korsar » 11 янв 2017, 23:01

Joe Satriani - Playlist: The Very Best Of Joe Satriani
Жанр: Instrumental Guitar Rock, Hard Rock, Progressive Rock
Носитель: CD
Тип: Album, Compilation
Год издания: 2010
Издатель (лейбл): Sony Epic/Legacy
Номер по каталогу: 88697610192
Страна исполнителя (группы): USA
Аудиокодек: FLAC (*.flac)
Тип рипа: image+.cue
Битрейт аудио: lossless
Продолжительность: 1:03:48
Источник (релизер): own CD
Наличие сканов в содержимом раздачи: Front & Back + booklet (PDF)

Треклист:

01. Surfing With The Alien (4:25)
02. Always With Me, Always With You [Album Version] (3:23)
03. The Crush Of Love [Album Version] (4:20)
04. Flying In A Blue Dream [Album Version] (5:23)
05. Summer Song [Album Version] (4:58)
06. Time Machine [Album Version] (5:07)
07. Luminous Flesh Giants [Album Version] (5:57)
08. Ceremony (4:52)
09. Starry Night [Album Version] (3:54)
10. Up In Flames (4:33)
11. It's So Good [Album Version] (4:16)
12. Crowd Chant [Album Version] (3:16)
13. I Just Wanna Rock (3:26)
14. Revelation [Album Version] (5:56)
Код: Выделить всё
Exact Audio Copy V1.0 beta 4 from 7. December 2014

EAC extraction logfile from 18. March 2016, 20:50

Joe Satriani / Playlist

Used drive  : HL-DT-STDVDRAM GH20NS10   Adapter: 1  ID: 1

Read mode               : Secure
Utilize accurate stream : Yes
Defeat audio cache      : Yes
Make use of C2 pointers : No

Read offset correction                      : 667
Overread into Lead-In and Lead-Out          : No
Fill up missing offset samples with silence : Yes
Delete leading and trailing silent blocks   : No
Null samples used in CRC calculations       : Yes
Used interface                              : Native Win32 interface for Win NT & 2000

Used output format              : User Defined Encoder
Selected bitrate                : 896 kBit/s
Quality                         : High
Add ID3 tag                     : Yes
Command line compressor         : C:\Program Files (x86)\FLAC\FLAC frontend.exe
Additional command line options : -V -8 -T "Date=%year%" -T "Genre=%genre%" %source%

TOC of the extracted CD

     Track |   Start  |  Length  | Start sector | End sector
    ---------------------------------------------------------
        1  |  0:00.00 |  4:25.31 |         0    |    19905
        2  |  4:25.31 |  3:22.62 |     19906    |    35117
        3  |  7:48.18 |  4:20.25 |     35118    |    54642
        4  | 12:08.43 |  5:23.32 |     54643    |    78899
        5  | 17:32.00 |  4:58.28 |     78900    |   101277
        6  | 22:30.28 |  5:07.34 |    101278    |   124336
        7  | 27:37.62 |  5:56.55 |    124337    |   151091
        8  | 33:34.42 |  4:52.13 |    151092    |   173004
        9  | 38:26.55 |  3:54.20 |    173005    |   190574
       10  | 42:21.00 |  4:33.17 |    190575    |   211066
       11  | 46:54.17 |  4:15.48 |    211067    |   230239
       12  | 51:09.65 |  3:15.58 |    230240    |   244922
       13  | 54:25.48 |  3:26.24 |    244923    |   260396
       14  | 57:51.72 |  5:55.57 |    260397    |   287078
       15  | 66:19.54 |  1:06.51 |    298479    |   303479

Range status and errors

Selected range

     Filename H:\Музыка\Мои раздачи\Joe Satriani - Playlist.wav

     Peak level 100.0 %
     Extraction speed 3.4 X
     Range quality 100.0 %
     Test CRC E51F58E0
     Copy CRC E51F58E0
     Copy OK

No errors occurred

AccurateRip summary

Track  1  cannot be verified as accurate (confidence 8)  [06F2A3B9], AccurateRip returned [4128B217]  (AR v2)
Track  2  cannot be verified as accurate (confidence 8)  [5F397EDE], AccurateRip returned [C9D60D0C]  (AR v2)
Track  3  cannot be verified as accurate (confidence 8)  [2CD2BFE6], AccurateRip returned [1E5BE0F0]  (AR v2)
Track  4  cannot be verified as accurate (confidence 8)  [AA347165], AccurateRip returned [90EAB8B5]  (AR v2)
Track  5  cannot be verified as accurate (confidence 8)  [97156D58], AccurateRip returned [4FDE030F]  (AR v2)
Track  6  cannot be verified as accurate (confidence 8)  [DFC9C18E], AccurateRip returned [77F858FC]  (AR v2)
Track  7  cannot be verified as accurate (confidence 8)  [74126B0D], AccurateRip returned [56C8DFC2]  (AR v2)
Track  8  cannot be verified as accurate (confidence 8)  [5E20730F], AccurateRip returned [370BFCF3]  (AR v2)
Track  9  cannot be verified as accurate (confidence 8)  [1A8AF0D7], AccurateRip returned [8B9E009B]  (AR v2)
Track 10  cannot be verified as accurate (confidence 8)  [325EE863], AccurateRip returned [20891418]  (AR v2)
Track 11  cannot be verified as accurate (confidence 8)  [79F00B9F], AccurateRip returned [28831506]  (AR v2)
Track 12  cannot be verified as accurate (confidence 8)  [DEFEA988], AccurateRip returned [E0F7910A]  (AR v2)
Track 13  cannot be verified as accurate (confidence 8)  [FA76A35B], AccurateRip returned [7BC20987]  (AR v2)
Track 14  cannot be verified as accurate (confidence 8)  [63E77EE1], AccurateRip returned [43BE710A]  (AR v2)

No tracks could be verified as accurate
You may have a different pressing from the one(s) in the database

End of status report

---- CUETools DB Plugin V2.1.4

[CTDB TOCID: Vqq.UkkO0ppK.77BpbllMWVsbq8-] found
Submit result: Vqq.UkkO0ppK.77BpbllMWVsbq8- has been confirmed
Track | CTDB Status
  1   | (10/10) Accurately ripped
  2   | (10/10) Accurately ripped
  3   | (10/10) Accurately ripped
  4   | (10/10) Accurately ripped
  5   | (10/10) Accurately ripped
  6   | (10/10) Accurately ripped
  7   | (10/10) Accurately ripped
  8   | (10/10) Accurately ripped
  9   | (10/10) Accurately ripped
 10   | (10/10) Accurately ripped
 11   | (10/10) Accurately ripped
 12   | (10/10) Accurately ripped
 13   | (10/10) Accurately ripped
 14   | (10/10) Accurately ripped

==== Log checksum 2C37C8B57A3740739B3AA316B3B70AE454B29B9EBBF0B0BA978C0247AD4530F7 ====
Аватара пользователя
Korsar
Помощник Администратора-Корсар
 
Месяцев на трекере: 6Месяцев на трекере: 6Месяцев на трекере: 6Месяцев на трекере: 6Месяцев на трекере: 6Месяцев на трекере: 6
 
Зарегистрирован: 15 авг 2016, 17:15
В кошельке: 21,367.00
Банк: 0.00
Откуда: CCCР
Флаги:
СССР-2

Награды: 3
За отличные раздачи (2) За развитие форума (1)
  • Торрент
Автор: Korsar Хэш: ---
Добавлен: 11 янв 2017, 23:01 Приватный: Нет (DHT включён)
Статус: Проверен
Размер: 457.64 МБ (479 866 298 байт)
Изменил: Korsar (11 янв 2017, 23:02)
Скачали: 0 (Раздающих: 100%)
Причина:
---
Здоровье: 100%
Сидеров: 9 Личеров: 3
Скорость раздачи: 0 байт/сек Скорость скачивания: 0 байт/сек
Последний сидер: 1 месяц 7 дней 14 часов 8 минут 35 секунд назад Последний личер: 1 месяц 7 дней 14 часов 8 минут 35 секунд назад
Для скачивания торрента необходимо зарегистрироваться или войти на трекер.

Вернуться в Instrumental Guitar Rock

Выключите ADBLOCK!
проверить сайт
cron