logo
Международный русскоязычный
торрент-трекер
Menu
Магазин-KorsaRDoublon
Поделиться с друзьями: 
Голосуй за Корсар и получай дублоны
Рейтинг торрент трекеров - UpTracker.ru

Простая истина (2005, Драма, DVDRip-AVC) - KORSAR

Сообщение Sanechek » 11 янв 2017, 13:04

Название: Простая истина
Год выхода: 2005
Жанр: Драма
Режиссер: Ольга Антропова
В ролях: Паша Ильин, Александр Беляев, Юрий Чистяков

О фильме: Действие фильма происходит весной 1943 года в деревне Сучково на оккупированной немцами территории. Двенадцатилетний мальчик Витя находит в лесу раненого юношу, которого прячет в разрушенной церкви. Мальчик и местный священник - отец Вадим выхаживают раненного, в то время как фашисты расстреливают семью Вити. Раненный приходит в себя и тут открывается... правда...

Выпущено: Россия
Продолжительность: 00:22:04
Перевод: не требуется

Файл
Кодек: х264
Качество: DVDRip-AVC
Видео: MPEG-4 AVC, 720x576@768x576, 25 fps, 2750 Кбит/с
Звук: AC3, 2 ch, 384 Кбит/с

x264 [info]: frame I:159 Avg QP:17.97 size: 70123
x264 [info]: frame P:10237 Avg QP:20.15 size: 27748
x264 [info]: frame B:22714 Avg QP:20.82 size: 7015
==================================================================================
Общее
Уникальный идентификатор : 228634923335850574725889088709101784822 (0xAC017C0967DB6665B036E3378AC68EF6)
Полное имя : D:\Ф А Й Л Ы\Простая истина (2005).mkv
Формат : Matroska
Версия формата : Version 2
Размер файла : 494 Мбайт
Продолжительность : 22 м. 4 с.
Общий поток : 3131 Кбит/сек
Дата кодирования : UTC 2017-01-11 15:24:12
Программа кодирования : mkvmerge v7.8.0 ('River Man') 32bit built on Apr 3 2015 12:11:22
Библиотека кодирования : libebml v1.3.1 + libmatroska v1.4.2

Видео
Идентификатор : 1
Формат : AVC
Формат/Информация : Advanced Video Codec
Профиль формата : High@L4.1
Параметр CABAC формата : Да
Параметр ReFrames формата : 12 кадров
Идентификатор кодека : V_MPEG4/ISO/AVC
Продолжительность : 22 м. 4 с.
Битрейт : 2750 Кбит/сек
Ширина : 720 пикселей
Высота : 576 пикселей
Соотношение сторон : 4:3
Режим частоты кадров : Постоянный
Частота кадров : 25,000 кадров/сек
Стандарт вещания : PAL
Цветовое пространство : YUV
Субдискретизация насыщенности : 4:2:0
Битовая глубина : 8 бит
Тип развёртки : Прогрессивная
Бит/(Пиксели*Кадры) : 0.265
Размер потока : 424 Мбайт (86%)
Библиотека кодирования : x264 core 146 r2538 121396c
Настройки программы : cabac=1 / ref=12 / deblock=1:-2:-2 / analyse=0x3:0x133 / me=umh / subme=10 / psy=1 / psy_rd=1.05:0.10 / mixed_ref=1 / me_range=32 / chroma_me=1 / trellis=2 / 8x8dct=1 / cqm=0 / deadzone=21,11 / fast_pskip=0 / chroma_qp_offset=-3 / threads=3 / lookahead_threads=1 / sliced_threads=0 / nr=0 / decimate=0 / interlaced=0 / bluray_compat=0 / constrained_intra=0 / bframes=16 / b_pyramid=2 / b_adapt=2 / b_bias=0 / direct=3 / weightb=1 / open_gop=0 / weightp=2 / keyint=250 / keyint_min=25 / scenecut=40 / intra_refresh=0 / rc=2pass / mbtree=0 / bitrate=2750 / ratetol=1.0 / qcomp=0.63 / qpmin=0 / qpmax=69 / qpstep=4 / cplxblur=20.0 / qblur=0.5 / ip_ratio=1.25 / pb_ratio=1.30 / aq=1:1.00
Язык : Russian
Default : Да
Forced : Нет
Цветовой диапазон : Limited
Основные цвета : BT.601 PAL
Характеристики трансфера : BT.470 System B, BT.470 System G
Коэффициенты матрицы : BT.601

Аудио
Идентификатор : 2
Формат : AC-3
Формат/Информация : Audio Coding 3
Расширение режима : CM (complete main)
Параметр Endianness формата : Big
Идентификатор кодека : A_AC3
Продолжительность : 22 м. 4 с.
Вид битрейта : Постоянный
Битрейт : 384 Кбит/сек
Каналы : 2 канала
Расположение каналов : Front: L R
Частота : 48,0 КГц
Частота кадров : 31,250 кадров/сек (1536 spf)
Битовая глубина : 16 бит
Метод сжатия : С потерями
Размер потока : 60,6 Мбайт (12%)
Язык : Russian
Default : Да
Forced : Нет
Последний раз редактировалось Sanechek 11 янв 2017, 18:35, всего редактировалось 1 раз.
Аватара пользователя
Sanechek
Главный Модератор-Корсар
 
 

Награды: 8
За отличные раздачи (4) За подробное оформление раздач (1) Верный Сид (3)
  • Торрент
Для скачивания торрента необходимо зарегистрироваться или войти на трекер.

Сообщение kwazar312 » 11 янв 2017, 13:12

Уважаемый Sanechek,большое спасибо за хороший фильм.Есть о чем подумать.
Аватара пользователя
kwazar312
Заслуженный Корсар-Вип
 
 

Награды: 13
За помощь проекту (2) Лучший по количеству кубков (3) За отличные комментарии (4) За участие в конкурсах (1) Верный Сид (3)

Сообщение kwazar312 » 11 янв 2017, 19:10

Я так понял,что это другая раздача.Чтото случилось.Спасибо за раздачу.
Аватара пользователя
kwazar312
Заслуженный Корсар-Вип
 
 

Награды: 13
За помощь проекту (2) Лучший по количеству кубков (3) За отличные комментарии (4) За участие в конкурсах (1) Верный Сид (3)

Сообщение Sanechek » 11 янв 2017, 20:23

Да, осветлил немного. Приятного просмотра!
Аватара пользователя
Sanechek
Главный Модератор-Корсар
 
 

Награды: 8
За отличные раздачи (4) За подробное оформление раздач (1) Верный Сид (3)


Вернуться в Наше современное кино



мониторинг сайтов