logo
Международный русскоязычный
торрент-трекер
Menu

Магазин-KorsaRDoublon

Поделиться с друзьями: 
Голосуй и получи дублоны
Рейтинг торрент трекеров - UpTracker.ru

Various Artists - Live At Wacken 2013 Disc 3 (2014, Heavy, Thrash, Speed, BDRip 1080p) - KORSAR

Сообщение likko » 11 янв 2017, 18:59

#777

Название: Live at Wacken 2013 Disc 3
Исполнитель: Various Artists
Год выхода: 2014
Жанр: Heavy, Thrash, Speed, Power, Death and other Metal
Продолжительность: 02:06:04

Описание: Третий диск из трёх BD. Хиты, легенды, фанаты - и много, много запоминающихся шоу.
Это грандиозное событие проходит ежегодно в местечке Вакен (Германия, район Гамбурга). За время своего существования фестиваль прошел путь от любительского концерта под открытым небом до одного из самых профессиональных по организации и качественных по составу участников мероприятия среди себе подобных.

01. Legion Of The Damned - Summon All Hate
02. Dew Scented - Soul Poison
03. Dew Scented - Cities Of The Dead
04. Dew Scented - Storm Within
05. Soulless - Down Hell's Path
06. Soulless - Agonies
07. Rebattered - Lost In Translation
08. Hate Squad - I.Q. Zero
09. Hate Squad - Self-Defence (Is No Offence)
10. Hate Squad - Not My God
11. Run Liberty Run - Movement
12. Run Liberty Run - Titanium
13. Null DB - Endzeit
14. Null DB - Kinder des Zorns
15. Null DB- Freiheit
16. Serum 114 - Die Stadt Die Wir Lieben
17. Serum 114 - Vom Siegen und Verlieren
18. Serum 114 - Hangt Sie hiher
19. Die Kassierer - Arsch abwischen
20. Die Kassierer - Das Schlimmste ist, wenn das Bier alle ist
21. Die Kassierer - Schnaps und Bier
22. Kamikaze Kings - Boneshaker Boogie
23. Kamikaze Kings - Boys 'n' Men
24. Alpha Tiger - Beneath the Surface
25. Alpha Tiger - Black Star Pariah
26. Chrome Molly - Cut Loose
27. Chrome Molly - Thanks for The Angst
28. Chrome Molly - Corporation Fear
29. Dezperadoz - OK Corral
30. Dezperadoz - My Old Rebel Heart
31. Dezperadoz - Hellbilly Square


Качество: BDRip 1080p
Формат: MKV
Видео кодек: H264
Аудио кодек: AC3, PCM
Видео: MPEG4 Video (H264), 1920x1080, 29.97fps, 11.0 Mbps
Аудио: Dolby AC3, 48000 Hz, 6ch, 640 kbps
Аудио: PCM, 48000 Hz, 2ch, 1536 kbps




General
Unique ID : 179070059637645353840885911401390048535 (0x86B7A3957FEEAE459A46DB3BB6128517)
Complete name : F:\Torrent 2\2013.Live.At.Wacken.Disk.3.likko.mkv
Format : Matroska
Format version : Version 4 / Version 2
File size : 11.6 GiB
Duration : 2 h 6 min
Overall bit rate : 13.2 Mb/s
Movie name : 2013 Live At Wacken Disk 3 / Rip by likko for korsar
Encoded date : UTC 2017-01-11 11:43:59
Writing application : mkvmerge v8.3.0 ('Over the Horizon') 64bit
Writing library : libebml v1.3.1 + libmatroska v1.4.2

Video
ID : 1
Format : AVC
Format/Info : Advanced Video Codec
Format profile : High@L4.1
Format settings, CABAC : Yes
Format settings, ReFrames : 4 frames
Codec ID : V_MPEG4/ISO/AVC
Duration : 2 h 6 min
Bit rate : 11.0 Mb/s
Width : 1 920 pixels
Height : 1 080 pixels
Display aspect ratio : 16:9
Frame rate mode : Constant
Frame rate : 29.970 (30000/1001) FPS
Color space : YUV
Chroma subsampling : 4:2:0
Bit depth : 8 bits
Scan type : Progressive
Bits/(Pixel*Frame) : 0.177
Stream size : 9.69 GiB (83%)
Title : 2013 Live At Wacken Disk 3
Writing library : x264 core 146 r2538 121396c
Encoding settings : cabac=1 / ref=4 / deblock=1:-1:-1 / analyse=0x3:0x133 / me=umh / subme=11 / psy=1 / psy_rd=1.11:0.23 / mixed_ref=1 / me_range=24 / chroma_me=1 / trellis=2 / 8x8dct=1 / cqm=0 / deadzone=21,11 / fast_pskip=0 / chroma_qp_offset=-3 / threads=12 / lookahead_threads=2 / sliced_threads=0 / nr=0 / decimate=1 / interlaced=0 / bluray_compat=0 / constrained_intra=0 / bframes=8 / b_pyramid=2 / b_adapt=2 / b_bias=0 / direct=3 / weightb=1 / open_gop=0 / weightp=2 / keyint=250 / keyint_min=25 / scenecut=40 / intra_refresh=0 / rc=2pass / mbtree=0 / bitrate=11000 / ratetol=1.0 / qcomp=0.60 / qpmin=0 / qpmax=69 / qpstep=4 / cplxblur=20.0 / qblur=0.5 / ip_ratio=1.40 / pb_ratio=1.30 / aq=2:1.00
Language : English
Default : Yes
Forced : No

Audio #1
ID : 2
Format : AC-3
Format/Info : Audio Coding 3
Mode extension : CM (complete main)
Format settings, Endianness : Big
Codec ID : A_AC3
Duration : 2 h 6 min
Bit rate mode : Constant
Bit rate : 640 kb/s
Channel(s) : 6 channels
Channel positions : Front: L C R, Side: L R, LFE
Sampling rate : 48.0 kHz
Frame rate : 31.250 FPS (1536 spf)
Bit depth : 16 bits
Compression mode : Lossy
Stream size : 577 MiB (5%)
Title : AC3 6ch
Language : English
Default : Yes
Forced : No

Audio #2
ID : 3
Format : PCM
Codec ID : A_PCM/INT/LIT
Duration : 2 h 6 min
Bit rate mode : Constant
Bit rate : 1 536 kb/s
Channel(s) : 2 channels
Sampling rate : 48.0 kHz
Frame rate : 32.000 FPS (1500 spf)
Bit depth : 16 bits
Stream size : 1.35 GiB (12%)
Title : PCM 2ch
Language : English
Default : No
Forced : No

Menu
00:00:00.000 : en:Chapter 01
00:04:37.443 : en:Chapter 02
00:08:40.686 : en:Chapter 03
00:13:57.102 : en:Chapter 04
00:18:07.853 : en:Chapter 05
00:21:49.107 : en:Chapter 06
00:26:39.431 : en:Chapter 07
00:30:14.179 : en:Chapter 08
00:34:34.505 : en:Chapter 09
00:38:51.562 : en:Chapter 10
00:43:15.025 : en:Chapter 11
00:46:56.246 : en:Chapter 12
00:50:01.431 : en:Chapter 13
00:54:13.183 : en:Chapter 14
00:58:54.364 : en:Chapter 15
01:03:38.648 : en:Chapter 16
01:08:48.958 : en:Chapter 17
01:10:27.022 : en:Chapter 18
01:13:46.722 : en:Chapter 19
01:15:10.472 : en:Chapter 20
01:19:34.302 : en:Chapter 21
01:22:45.460 : en:Chapter 22
01:25:39.734 : en:Chapter 23
01:29:02.303 : en:Chapter 24
01:34:50.117 : en:Chapter 25
01:43:16.857 : en:Chapter 26
01:47:12.459 : en:Chapter 27
01:50:52.112 : en:Chapter 28
01:54:36.002 : en:Chapter 29
01:58:58.164 : en:Chapter 30
02:02:24.170 : en:Chapter 31








Аватара пользователя
likko
Уважаемый Релизёр-Корсар
 
Месяцев на трекере: 9Месяцев на трекере: 9Месяцев на трекере: 9Месяцев на трекере: 9Месяцев на трекере: 9Месяцев на трекере: 9Месяцев на трекере: 9Месяцев на трекере: 9Месяцев на трекере: 9
 

Награды: 2
За помощь проекту (1) Верный Сид (1)
  • Торрент
Для скачивания торрента необходимо зарегистрироваться или войти на трекер.

Вернуться в Концерты



проверить сайт