logo
Международный русскоязычный
торрент-трекер
Menu

Магазин-KorsaRDoublon
Поделиться с друзьями: 
Голосуй за Корсар и получай дублоны
Рейтинг торрент трекеров - UpTracker.ru

Various Artists - Live At Wacken 2013 Disc 2 (2014, Heavy, Thrash, Speed, BDRip 1080p) - KORSAR

Сообщение likko » 11 янв 2017, 18:13



Название: Live at Wacken 2013 Disc 2
Исполнитель: Various Artists
Год выхода: 2014
Жанр: Heavy, Thrash, Speed, Power, Death and other Metal
Продолжительность: 02:58:05

Описание: Второй диск из трёх BD. Хиты, легенды, фанаты - и много, много запоминающихся шоу.
Это грандиозное событие проходит ежегодно в местечке Вакен (Германия, район Гамбурга). За время своего существования фестиваль прошел путь от любительского концерта под открытым небом до одного из самых профессиональных по организации и качественных по составу участников мероприятия среди себе подобных.

01. Pretty Maids - Future World
02. Ugly Kid Joe- Devil's Paradise
03. Ugly Kid Joe - No One Survives
04. Ugly Kid Joe - Ace of Spades
05. Alestorm - The Sunk'n Norwegian
06. Sonata Arctica - Losing My Insanity
07. Sonata Arctica - I Have A Right
08. Sonata Arctica - Don't Say A Word
09. Ihsahn - The Paranoid
10. Candlemass - Psalms For the Dead
11. Secret Sphere - Healing
12. Secret Sphere - Lie To Me
13. Secret Sphere - Wish & Steadiness
14. Mustasch - Speed Metal
15. Mustasch - Double Nature
16. Mustasch - I Hunt Alone
17. Heaven's Basement - Fire, Fire
18. Heaven's Basement - I Am Electric
19. Heaven's Basement - Heartbreaking Son of a Bitch
20. Fozzy - God Pounds His Nails
21. Fozzy - Blood Happens
22. Emergency Gate - Dark Side Of The Sun
23. Emergency Gate - Gold & Glass
24. Emergency Gate - Mindfuck
25. Whitechapel - I, dementia
26. Whitechapel - Vicer Exiser
27. Whitechapel - This Is Exile
28. Ragnarok - Iron Cross - Posthumous
29. Ragnarok - Sword of Damocles
30. Ragnarok - In Nomine Satanas
31. Black Messiah - Der Ring Mit Dem Kreuz
32. Black Messiah - Windloni
33. Black Messiah - Sauflied
34. Corvus Corax - Havfru
35. Corvus Corax - Spielmannstanz
36. Corvus Corax - Twilight Of the Thundergod
37. Amorphis - Silver Bride
38. Amorphis - Narrow Path
39. Amorphis - Hopeless Days

Качество: BDRip 1080p
Формат: MKV
Видео кодек: H264
Аудио кодек: AC3, PCM
Видео: MPEG4 Video (H264), 1920x1080, 29.97fps, 11.0 Mbps
Аудио: Dolby AC3, 48000 Hz, 6ch, 640 kbps
Аудио: PCM, 48000 Hz, 2ch, 1536 kbps




General
Unique ID : 220507466548724215388639532541003914975 (0xA5E4317AB6C1F4B0B9C9124F48C75EDF)
Complete name : F:\DVDRip\2013 Live At Wacken Disk 1-3\2013 Live At Wacken Disk 2.mkv
Format : Matroska
Format version : Version 4 / Version 2
File size : 16.4 GiB
Duration : 2 h 58 min
Overall bit rate : 13.2 Mb/s
Movie name : 2013 Live At Wacken Disk 2 / Rip by likko
Encoded date : UTC 2017-01-09 09:59:56
Writing application : mkvmerge v8.3.0 ('Over the Horizon') 64bit
Writing library : libebml v1.3.1 + libmatroska v1.4.2

Video
ID : 1
Format : AVC
Format/Info : Advanced Video Codec
Format profile : High@L4.1
Format settings, CABAC : Yes
Format settings, ReFrames : 4 frames
Codec ID : V_MPEG4/ISO/AVC
Duration : 2 h 58 min
Bit rate : 11.0 Mb/s
Width : 1 920 pixels
Height : 1 080 pixels
Display aspect ratio : 16:9
Frame rate mode : Constant
Frame rate : 29.970 (30000/1001) FPS
Color space : YUV
Chroma subsampling : 4:2:0
Bit depth : 8 bits
Scan type : Progressive
Bits/(Pixel*Frame) : 0.177
Stream size : 13.7 GiB (83%)
Title : 2013 Live At Wacken Disk 2
Writing library : x264 core 146 r2538 121396c
Encoding settings : cabac=1 / ref=4 / deblock=1:-1:-1 / analyse=0x3:0x133 / me=umh / subme=11 / psy=1 / psy_rd=1.11:0.23 / mixed_ref=1 / me_range=24 / chroma_me=1 / trellis=2 / 8x8dct=1 / cqm=0 / deadzone=21,11 / fast_pskip=0 / chroma_qp_offset=-3 / threads=12 / lookahead_threads=2 / sliced_threads=0 / nr=0 / decimate=1 / interlaced=0 / bluray_compat=0 / constrained_intra=0 / bframes=8 / b_pyramid=2 / b_adapt=2 / b_bias=0 / direct=3 / weightb=1 / open_gop=0 / weightp=2 / keyint=250 / keyint_min=25 / scenecut=40 / intra_refresh=0 / rc=2pass / mbtree=0 / bitrate=11000 / ratetol=1.0 / qcomp=0.60 / qpmin=0 / qpmax=69 / qpstep=4 / cplxblur=20.0 / qblur=0.5 / ip_ratio=1.40 / pb_ratio=1.30 / aq=2:1.00
Language : English
Default : Yes
Forced : No

Audio #1
ID : 2
Format : AC-3
Format/Info : Audio Coding 3
Mode extension : CM (complete main)
Format settings, Endianness : Big
Codec ID : A_AC3
Duration : 2 h 58 min
Bit rate mode : Constant
Bit rate : 640 kb/s
Channel(s) : 6 channels
Channel positions : Front: L C R, Side: L R, LFE
Sampling rate : 48.0 kHz
Frame rate : 31.250 FPS (1536 spf)
Bit depth : 16 bits
Compression mode : Lossy
Stream size : 815 MiB (5%)
Title : AC3 6ch
Language : English
Default : Yes
Forced : No

Audio #2
ID : 3
Format : PCM
Codec ID : A_PCM/INT/LIT
Duration : 2 h 58 min
Bit rate mode : Constant
Bit rate : 1 536 kb/s
Channel(s) : 2 channels
Sampling rate : 48.0 kHz
Frame rate : 32.000 FPS (1500 spf)
Bit depth : 16 bits
Stream size : 1.91 GiB (12%)
Title : PCM 2ch
Language : English
Default : No
Forced : No

Menu
00:00:00.000 : en:Chapter 01
00:06:28.454 : en:Chapter 02
00:10:23.255 : en:Chapter 03
00:14:04.610 : en:Chapter 04
00:17:36.889 : en:Chapter 05
00:21:33.425 : en:Chapter 06
00:25:20.619 : en:Chapter 07
00:30:08.439 : en:Chapter 08
00:36:35.826 : en:Chapter 09
00:41:25.549 : en:Chapter 10
00:48:42.886 : en:Chapter 11
00:53:15.358 : en:Chapter 12
00:57:14.397 : en:Chapter 13
01:02:10.310 : en:Chapter 14
01:05:37.817 : en:Chapter 15
01:10:13.593 : en:Chapter 16
01:14:39.492 : en:Chapter 17
01:19:03.088 : en:Chapter 18
01:22:34.466 : en:Chapter 19
01:25:32.577 : en:Chapter 20
01:30:05.750 : en:Chapter 21
01:35:11.322 : en:Chapter 22
01:38:31.956 : en:Chapter 23
01:42:27.491 : en:Chapter 24
01:46:42.880 : en:Chapter 25
01:51:15.285 : en:Chapter 26
01:54:42.375 : en:Chapter 27
01:58:52.892 : en:Chapter 28
02:03:40.880 : en:Chapter 29
02:07:13.592 : en:Chapter 30
02:12:48.827 : en:Chapter 31
02:19:08.073 : en:Chapter 32
02:22:57.302 : en:Chapter 33
02:27:42.253 : en:Chapter 34
02:33:45.016 : en:Chapter 35
02:39:03.267 : en:Chapter 36
02:43:49.987 : en:Chapter 37
02:48:10.547 : en:Chapter 38
02:52:46.523 : en:Chapter 39









Аватара пользователя
likko
Уважаемый Релизёр-Корсар
 
 

Награды: 9
Лучший по количеству кубков (8) Верный Сид (1)
  • Торрент
Для скачивания торрента необходимо зарегистрироваться или войти на трекер.

Вернуться в Концерты (HD Video)



Uptime по данным Ping-Admin.Ru - сервиса мониторинга доступности сайтов