logo
Международный русскоязычный
торрент-трекер

Девочка ищет отца (1959, Драма, военный, SATRip-AVC)

Сообщение Sanechek » 10 янв 2017, 17:17

Название: Девочка ищет отца
Год выхода: 1959
Жанр: Драма, военный
Режиссер: Лев Голуб
В ролях: Анна Каменкова, Владимир Гуськов (I), Николай Бармин, Владимир Дорофеев, Алёна Егорова, Нина Гребешкова, Константин Барташевич, Виктор Уральский, Евгений Григорьев, Борис Кудрявцев, Татьяна Бейнерович, Евгений Полосин, Андрей Пунтус, Алевтина Румянцева

О фильме: В скрытый от немцев лесной домик, где живут только лесник с внуком, хозяин приносит четырехлетнюю девочку, не подозревая о том, что она — дочь легендарного партизана «батьки Панаса». Позже наивный старик раскроет гестаповцам местонахождение девочки. Поняв свою ошибку, он сделает все возможное, чтобы спасти детей...



Выпущено: СССР, Беларусьфильм
Продолжительность: 01:26:15
Перевод: не требуется

Файл
Кодек: х264
Качество: SATRip-AVC
Видео: MPEG-4 AVC, 672x558@716x558, 25 fps, 3000 Кбит/с
Звук: AC3, 2 ch, 192 Кбит/с

Сравнение с исходником

x264 [info]: frame I:716 Avg QP:17.63 size: 71572
x264 [info]: frame P:31902 Avg QP:19.74 size: 34706
x264 [info]: frame B:96772 Avg QP:20.80 size: 8085
==========================================================================
Общее
Уникальный идентификатор : 244542262877385561688596004281102039393 (0xB7F9206DBB634F15AB8D9A5A8612F961)
Полное имя : D:\Девочка ищет отца (1959).mkv
Формат : Matroska
Версия формата : Version 2
Размер файла : 1,92 Гбайт
Продолжительность : 1 ч. 26 м.
Общий поток : 3194 Кбит/сек
Дата кодирования : UTC 2017-01-10 06:53:29
Программа кодирования : mkvmerge v7.8.0 ('River Man') 32bit built on Apr 3 2015 12:11:22
Библиотека кодирования : libebml v1.3.1 + libmatroska v1.4.2

Видео
Идентификатор : 1
Формат : AVC
Формат/Информация : Advanced Video Codec
Профиль формата : High@L4.1
Параметр CABAC формата : Да
Параметр ReFrames формата : 12 кадров
Идентификатор кодека : V_MPEG4/ISO/AVC
Продолжительность : 1 ч. 26 м.
Битрейт : 3000 Кбит/сек
Ширина : 672 пикселя
Высота : 558 пикселей
Соотношение сторон : 1,283
Соотношение сторон в оригинале : 1,285
Режим частоты кадров : Постоянный
Частота кадров : 25,000 кадров/сек
Цветовое пространство : YUV
Субдискретизация насыщенности : 4:2:0
Битовая глубина : 8 бит
Тип развёртки : Прогрессивная
Бит/(Пиксели*Кадры) : 0.320
Размер потока : 1,77 Гбайт (92%)
Библиотека кодирования : x264 core 146 r2538 121396c
Настройки программы : cabac=1 / ref=12 / deblock=1:-2:-2 / analyse=0x3:0x133 / me=umh / subme=10 / psy=1 / psy_rd=1.05:0.10 / mixed_ref=1 / me_range=32 / chroma_me=1 / trellis=2 / 8x8dct=1 / cqm=0 / deadzone=21,11 / fast_pskip=0 / chroma_qp_offset=-3 / threads=3 / lookahead_threads=1 / sliced_threads=0 / nr=0 / decimate=0 / interlaced=0 / bluray_compat=0 / constrained_intra=0 / bframes=16 / b_pyramid=2 / b_adapt=2 / b_bias=0 / direct=3 / weightb=1 / open_gop=0 / weightp=2 / keyint=250 / keyint_min=25 / scenecut=40 / intra_refresh=0 / rc=2pass / mbtree=0 / bitrate=3000 / ratetol=1.0 / qcomp=0.63 / qpmin=0 / qpmax=69 / qpstep=4 / cplxblur=20.0 / qblur=0.5 / ip_ratio=1.25 / pb_ratio=1.30 / aq=1:1.00
Язык : Russian
Default : Да
Forced : Нет
Цветовой диапазон : Limited
Основные цвета : BT.601 PAL
Характеристики трансфера : BT.470 System B, BT.470 System G
Коэффициенты матрицы : BT.601

Аудио
Идентификатор : 2
Формат : AC-3
Формат/Информация : Audio Coding 3
Расширение режима : CM (complete main)
Параметр Endianness формата : Big
Идентификатор кодека : A_AC3
Продолжительность : 1 ч. 26 м.
Вид битрейта : Постоянный
Битрейт : 192 Кбит/сек
Каналы : 2 канала
Расположение каналов : Front: L R
Частота : 48,0 КГц
Частота кадров : 31,250 кадров/сек (1536 spf)
Битовая глубина : 16 бит
Метод сжатия : С потерями
Размер потока : 118 Мбайт (6%)
Язык : Russian
Default : Да
Forced : Нет
Аватара пользователя
Sanechek
Опытный Релизёр-Корсар
 
Месяцев на трекере: 2Месяцев на трекере: 2
 
Раздал: 149.21 ГБ
Зарегистрирован: 10 ноя 2016, 09:29
Откуда: СССР

  • Торрент
Автор: Sanechek Хэш: ---
Добавлен: 10 янв 2017, 17:17 Приватный: Нет (DHT включён)
Статус: Проверен
Размер: 1.92 ГБ (2 066 207 483 байт)
Изменил:
---
Скачали: 3 (Раздающих: 100%)
Причина:
---
Здоровье: 100%
Сидеров: 25 Личеров: 2
Скорость раздачи: 0 байт/сек Скорость скачивания: 0 байт/сек
Последний сидер: 14 минут 25 секунд назад Последний личер: 26 минут 35 секунд назад
Для скачивания торрента необходимо зарегистрироваться или войти на трекер.

Сообщение kwazar312 » 10 янв 2017, 18:45

Уважаемый Sanechek,большое спасибо за прекрасный фильм.
Аватара пользователя
kwazar312
Уважаемый Корсар
 
Месяцев на трекере: 5Месяцев на трекере: 5Месяцев на трекере: 5Месяцев на трекере: 5Месяцев на трекере: 5
 
Раздал: 1 ТБ
Зарегистрирован: 08 авг 2016, 06:50


Сообщение bagrad » 11 янв 2017, 01:18

Спасибо большое Sanechek! :hi:
Dum spíro, spéro!
Аватара пользователя
bagrad
Корсар-Вип
 
Месяцев на трекере: 5Месяцев на трекере: 5Месяцев на трекере: 5Месяцев на трекере: 5Месяцев на трекере: 5
 
Раздал: 377.37 ГБ
Зарегистрирован: 06 авг 2016, 09:35
Откуда: СССР

Награды: 1
За помощь проекту (1)

Сообщение Sanechek » 11 янв 2017, 08:23

Всегда пожалуйста, а фильм действительно прекрасный! :hi:
Аватара пользователя
Sanechek
Опытный Релизёр-Корсар
 
Месяцев на трекере: 2Месяцев на трекере: 2
 
Раздал: 149.21 ГБ
Зарегистрирован: 10 ноя 2016, 09:29
Откуда: СССР


Сообщение likko » 11 янв 2017, 09:02

Первый фильм актрисы Анны Каменковой.
Спасибо хоть за телеверсию, DVD нигде нет. :good: :hi:
Аватара пользователя
likko
Главный Модератор-Корсар
 
Месяцев на трекере: 4Месяцев на трекере: 4Месяцев на трекере: 4Месяцев на трекере: 4
 
Раздал: 1.25 ТБ
Зарегистрирован: 26 авг 2016, 18:11
Откуда: Оттуда



Вернуться в Кино времён СССР

cron