logo
Международный русскоязычный
торрент-трекер
Menu
Магазин-KorsaRDoublon
Поделиться с друзьями: 
Голосуй и получи дублоны
Рейтинг торрент трекеров - UpTracker.ru

Прах Анджелы / Angela's Ashes (1999, Драма, BDRip 720p)

Сообщение Gogen » 10 янв 2017, 13:04


Информация о фильме
Название: Прах Анджелы
Оригинальное название: Angela's Ashes
Год выхода: 1999
Жанр: Драма
Режиссер: Алан Паркер
В ролях: Майкл Легг, Алан Паркер, Эмили Уотсон, Роберт Карлайл, Тим О'Брайен, Инна МакЛиэм, Сайарэн Оуэнс, Шэйн Смит, Ронни Мастерсон, Полин МакЛинн, Лайэм Карни, Эндрю Беннетт, Шэйн Мюррэй Коркорэн, Девон Мюррей, Питер Хэлпин, Эрон Герахти, Джо Брин
О фильме:
В 1935 году многочисленное семейство Маккуртов, не найдя счастья в Америке, возвращается в Ирландию, где их тоже никто не ждет. Поселившись в тесной, сырой квартирке, они пытаются выжить. Анджела, на чьих плечах все домашние хлопоты, выбивается из сил, постепенно теряя веру в мужа.
Всевышний словно забыл о них. И 6-летний Фрэнки на первом Причастии вынужден признаться, что грешен. С этой ношей он и вступает во взрослую жизнь. Он еще не знает, что очень скоро взвалит бремя забот на себя.
А пока у него есть еще немного времени на учебу, шалости и кино. И зыбкая надежда увидеть статую Свободы снова…

Страна: США, Ирландия
Студия: David Brown Productions, Dirty Hands Productions, Scott Rudin Productions
Продолжительность: 02:25:55
Перевод: Профессиональный (многоголосый, закадровый) R5
Файл
Кодек: h.264
Качество: BDRip 720p Источник BD50
Видео: 1280x696 (1.85:1), 23.976 fps, AVC, ~7186 Kbps, 0.336 bits/pixel
Звук:
Русский, 48.0 KHz, AC3, 5.0 ch, 384 Kbps
Английский, 48.0 KHz, AC3, 5.0 ch, 640 Kbps (исх.LFE DTSHD MA - пустой)
Субтитры: Русские, SRT(UTF-8) R5
бщее
Уникальный идентификатор : 251532128650542805552207010396950046086 (0xBD3B536B30E2F5D5B14169C9E1C52586)
Полное имя : E:FILMSPrakh_Andzhely.1999.BDRip720p.mkv
Формат : Matroska
Версия формата : Version 4 / Version 2
Размер файла : 8,72 Гбайт
Продолжительность : 2 ч. 29 м.
Общий поток : 8376 Кбит/сек
Дата кодирования : UTC 2017-01-09 19:13:51
Программа кодирования : mkvmerge v9.7.1 ('Pandemonium') 64bit
Библиотека кодирования : libebml v1.3.4 + libmatroska v1.4.5

Видео
Идентификатор : 1
Формат : AVC
Формат/Информация : Advanced Video Codec
Профиль формата : High@L4.1
Параметр CABAC формата : Да
Параметр ReFrames формата : 9 кадров
Идентификатор кодека : V_MPEG4/ISO/AVC
Продолжительность : 2 ч. 25 м.
Битрейт : 7508 Кбит/сек
Ширина : 1280 пикселей
Высота : 696 пикселей
Соотношение сторон : 1,85:1
Режим частоты кадров : Постоянный
Частота кадров : 23,976 (24000/1001) кадра/сек
Цветовое пространство : YUV
Субдискретизация насыщенности : 4:2:0
Битовая глубина : 8 бит
Тип развёртки : Прогрессивная
Бит/(Пиксели*Кадры) : 0.351
Размер потока : 7,65 Гбайт (88%)
Библиотека кодирования : x264 core 148 r2638 7599210
Настройки программы : cabac=1 / ref=9 / deblock=1:-3:-3 / analyse=0x3:0x133 / me=umh / subme=11 / psy=1 / psy_rd=1.10:0.15 / mixed_ref=1 / me_range=48 / chroma_me=1 / trellis=2 / 8x8dct=1 / cqm=0 / deadzone=21,11 / fast_pskip=0 / chroma_qp_offset=-3 / threads=8 / lookahead_threads=2 / sliced_threads=0 / nr=0 / decimate=0 / interlaced=0 / bluray_compat=0 / constrained_intra=0 / bframes=10 / b_pyramid=2 / b_adapt=2 / b_bias=0 / direct=3 / weightb=1 / open_gop=0 / weightp=2 / keyint=240 / keyint_min=23 / scenecut=40 / intra_refresh=0 / rc_lookahead=60 / rc=crf / mbtree=0 / crf=19.0 / qcomp=0.60 / qpmin=0 / qpmax=69 / qpstep=4 / vbv_maxrate=40000 / vbv_bufsize=50000 / crf_max=0.0 / nal_hrd=none / filler=0 / ip_ratio=1.40 / pb_ratio=1.30 / aq=1:1.00
Default : Нет
Forced : Нет
Цветовой диапазон : Limited
Основные цвета : BT.709
Характеристики трансфера : BT.709
Коэффициенты матрицы : BT.709

Аудио #1
Идентификатор : 2
Формат : AC-3
Формат/Информация : Audio Coding 3
Расширение режима : CM (complete main)
Параметр Endianness формата : Big
Идентификатор кодека : A_AC3
Продолжительность : 2 ч. 29 м.
Вид битрейта : Постоянный
Битрейт : 384 Кбит/сек
Каналы : 5 каналов
Расположение каналов : Front: L C R, Side: L R
Частота : 48,0 КГц
Частота кадров : 31,250 кадров/сек (1536 spf)
Битовая глубина : 16 бит
Метод сжатия : С потерями
Размер потока : 409 Мбайт (5%)
Язык : Russian
Default : Да
Forced : Нет

Аудио #2
Идентификатор : 3
Формат : AC-3
Формат/Информация : Audio Coding 3
Расширение режима : CM (complete main)
Параметр Endianness формата : Big
Идентификатор кодека : A_AC3
Продолжительность : 2 ч. 29 м.
Вид битрейта : Постоянный
Битрейт : 640 Кбит/сек
Каналы : 5 каналов
Расположение каналов : Front: L C R, Side: L R
Частота : 48,0 КГц
Частота кадров : 31,250 кадров/сек (1536 spf)
Битовая глубина : 16 бит
Метод сжатия : С потерями
Размер потока : 682 Мбайт (8%)
Язык : English
Default : Нет
Forced : Нет

Текст
Идентификатор : 4
Формат : UTF-8
Идентификатор кодека : S_TEXT/UTF8
Идентификатор кодека/Информация : UTF-8 Plain Text
Продолжительность : 2 ч. 17 м.
Битрейт : 101 бит/сек
Count of elements : 1250
Размер потока : 102 Кбайт (0%)
Язык : Russian
Default : Нет
Forced : Нет

Меню
00:00:00.000 : en:00:00:00.000
00:11:14.424 : en:00:11:14.424
00:21:32.041 : en:00:21:32.041
00:36:31.606 : en:00:36:31.606
00:50:56.762 : en:00:50:56.762
01:07:10.652 : en:01:07:10.652
01:19:12.373 : en:01:19:12.373
01:31:59.347 : en:01:31:59.347
01:44:21.255 : en:01:44:21.255
01:57:33.296 : en:01:57:33.296
02:06:43.387 : en:02:06:43.387
02:20:16.366 : en:02:20:16.366


Релиз от: Temperest
Аватара пользователя
Gogen
Уважаемый Релизёр-Корсар
 
Месяцев на трекере: 8Месяцев на трекере: 8Месяцев на трекере: 8Месяцев на трекере: 8Месяцев на трекере: 8Месяцев на трекере: 8Месяцев на трекере: 8Месяцев на трекере: 8
 

Награды: 5
За отличные раздачи (5)
  • Торрент
Для скачивания торрента необходимо зарегистрироваться или войти на трекер.

Вернуться в Зарубежное кино (1991-2000 / HD Video)



мониторинг сайтов