logo
Международный русскоязычный
торрент-трекер

Анна и Командор (1974, мелодрама, SATRip-AVC)

Сообщение filbi1976 » 09 янв 2017, 00:05

Название: Анна и командор
Год выхода: 1975
Жанр: драма
Режиссер: Евгений Хринюк
В ролях: Алиса Фрейндлих, Василий Лановой, Иннокентий Смоктуновский, Алексей Чернов, Пётр Филоненко, Неонила Гнеповская, Сергей Карнович-Валуа, Владимир Козел, Леон Кукулян, Виктор Маляреви

Описание: Решив написать об известном ученом, трагически погибшем во время испытаний, драматург знакомится с его женой и в конечном итоге посвящает сценарий супружеской паре.

Выпущено: СССР
Продолжительность: 01:19:26

#7#7

Файл
Кодек: х264
Качество: SATRip-AVC
Видео: MPEG-4 AVC, 684x572@746x572, 25 fps, 2500 Кбит/с
Звук: AC3, 2 ch, 384 Кбит/с


  • x264 [info]: frame I:569 Avg QP:17.76 size: 68181
  • x264 [info]: frame P:23966 Avg QP:20.09 size: 32707
  • x264 [info]: frame B:94637 Avg QP:21.75 size: 7047
==============================================================================
Общее
Уникальный идентификатор : 178748916171207146705135658347049984758 (0x8679C9FD16E8EC00BD29757E5B5F22F6)
Полное имя : D:\Анна и Командор_1974-SATRip-AVC.mkv
Формат : Matroska
Версия формата : Version 2
Размер файла : 1,60 Гбайт
Продолжительность : 1 ч. 19 м.
Общий поток : 2886 Кбит/сек
Дата кодирования : UTC 2017-01-09 00:03:35
Программа кодирования : mkvmerge v5.8.0 ('No Sleep / Pillow') built on Sep 2 2012 15:37:04
Библиотека кодирования : libebml v1.2.3 + libmatroska v1.3.0

Видео
Идентификатор : 1
Формат : AVC
Формат/Информация : Advanced Video Codec
Профиль формата : High@L4.1
Параметр CABAC формата : Да
Параметр ReFrames формата : 14 кадров
Идентификатор кодека : V_MPEG4/ISO/AVC
Продолжительность : 1 ч. 19 м.
Битрейт : 2500 Кбит/сек
Ширина : 684 пикселя
Высота : 572 пикселя
Соотношение сторон : 4:3
Режим частоты кадров : Постоянный
Частота кадров : 25,000 кадров/сек
Цветовое пространство : YUV
Субдискретизация насыщенности : 4:2:0
Битовая глубина : 8 бит
Тип развёртки : Прогрессивная
Бит/(Пиксели*Кадры) : 0.256
Размер потока : 1,36 Гбайт (85%)
Заголовок : korsar.tv
Библиотека кодирования : x264 core 148 r2744kMod b97ae06
Настройки программы : cabac=1 / ref=14 / deblock=1:-2:-2 / analyse=0x3:0x133 / me=umh / subme=10 / psy=1 / fade_compensate=0.00 / psy_rd=1.05:0.10 / mixed_ref=1 / me_range=32 / chroma_me=1 / trellis=2 / 8x8dct=1 / cqm=0 / deadzone=21,11 / fast_pskip=0 / chroma_qp_offset=-3 / threads=12 / lookahead_threads=3 / sliced_threads=0 / nr=0 / decimate=0 / interlaced=0 / bluray_compat=0 / constrained_intra=0 / bframes=10 / b_pyramid=2 / b_adapt=2 / b_bias=0 / direct=3 / weightb=1 / open_gop=0 / weightp=2 / keyint=250 / keyint_min=25 / scenecut=40 / intra_refresh=0 / rc=2pass / mbtree=0 / bitrate=2500 / ratetol=1.0 / qcomp=0.63 / qpmin=0 / qpmax=39 / qpstep=4 / cplxblur=20.0 / qblur=0.5 / ip_ratio=1.20 / pb_ratio=1.30 / aq=1:0.90
Язык : English
Default : Да
Forced : Нет
Цветовой диапазон : Limited
Основные цвета : BT.601 PAL
Характеристики трансфера : BT.470 System B, BT.470 System G
Коэффициенты матрицы : BT.601

Аудио
Идентификатор : 2
Формат : AC-3
Формат/Информация : Audio Coding 3
Расширение режима : CM (complete main)
Параметр Endianness формата : Big
Идентификатор кодека : A_AC3
Продолжительность : 1 ч. 19 м.
Вид битрейта : Постоянный
Битрейт : 384 Кбит/сек
Каналы : 2 канала
Расположение каналов : Front: L R
Частота : 48,0 КГц
Частота кадров : 31,250 кадров/сек (1536 spf)
Битовая глубина : 16 бит
Метод сжатия : С потерями
Размер потока : 218 Мбайт (13%)
Язык : Russian
Default : Да
Forced : Нет

Аватара пользователя
filbi1976
Главный-Корсар
 
Месяцев на трекере: 5Месяцев на трекере: 5Месяцев на трекере: 5Месяцев на трекере: 5Месяцев на трекере: 5
 
Раздал: 48.18 ТБ
Зарегистрирован: 03 авг 2016, 12:59
Откуда: СССР

  • Торрент
Автор: filbi1976 Хэш: ---
Добавлен: 09 янв 2017, 00:05 Приватный: Нет (DHT включён)
Статус: Проверен
Размер: 1.6 ГБ (1 719 432 943 байт)
Изменил:
---
Скачали: 9 (Раздающих: 11%)
Причина:
---
Здоровье: 100%
Сидеров: 1 Личеров: 0
Скорость раздачи: 0 байт/сек Скорость скачивания: 0 байт/сек
Последний сидер: 11 минут 58 секунд назад Последний личер: 2 дня 10 часов 16 минут 21 секунду назад
Для скачивания торрента необходимо зарегистрироваться или войти на трекер.

Сообщение verybigpapa » 09 янв 2017, 03:26

Уважаемый filbi1976, большое спасибо. :hi:
Улыбайтесь, господа! Улыбайтесь!
Аватара пользователя
verybigpapa
Корсар-Вип
 
Месяцев на трекере: 5Месяцев на трекере: 5Месяцев на трекере: 5Месяцев на трекере: 5Месяцев на трекере: 5
 
Раздал: 167.38 ГБ
Зарегистрирован: 03 авг 2016, 16:00
Откуда: СССР

Награды: 1
За помощь проекту (1)

Сообщение kwazar312 » 09 янв 2017, 08:01

Уважаемый filbi1976,большое спасибо за раздачу.Фильм хороший,можно будет и пересмотреть.Удачи ВАМ.
Аватара пользователя
kwazar312
Уважаемый Корсар
 
Месяцев на трекере: 5Месяцев на трекере: 5Месяцев на трекере: 5Месяцев на трекере: 5Месяцев на трекере: 5
 
Раздал: 1.02 ТБ
Зарегистрирован: 08 авг 2016, 06:50


Сообщение mister.hats » 09 янв 2017, 10:16

Сереж спасибо :hi: :drinks:
Тот кто не с нами,тот против нас
Аватара пользователя
mister.hats
Корсар-Вип
 
Месяцев на трекере: 5Месяцев на трекере: 5Месяцев на трекере: 5Месяцев на трекере: 5Месяцев на трекере: 5
 
Раздал: 670.62 ГБ
Зарегистрирован: 03 авг 2016, 13:45
Откуда: СССР

Награды: 1
За помощь проекту (1)

Сообщение Digor » 09 янв 2017, 11:01

Спасибо большое, Сергей!
Хороший фильм, одна из лучших ролей Алисы Фрейндлих.
Аватара пользователя
Digor
Главный Модератор-Корсар
 
Месяцев на трекере: 5Месяцев на трекере: 5Месяцев на трекере: 5Месяцев на трекере: 5Месяцев на трекере: 5
 
Раздал: 2.99 ТБ
Зарегистрирован: 04 авг 2016, 20:25
Откуда: СССР

Награды: 1
За помощь проекту (1)

Сообщение filbi1976 » 09 янв 2017, 11:49

Всем пожалуйста! :hi:
Аватара пользователя
filbi1976
Главный-Корсар
 
Месяцев на трекере: 5Месяцев на трекере: 5Месяцев на трекере: 5Месяцев на трекере: 5Месяцев на трекере: 5
 
Раздал: 48.18 ТБ
Зарегистрирован: 03 авг 2016, 12:59
Откуда: СССР


Сообщение bagrad » 09 янв 2017, 14:21

Спасибо большое Сергей! :hi: Хороший фильм о верности, преданности!
Dum spíro, spéro!
Аватара пользователя
bagrad
Корсар-Вип
 
Месяцев на трекере: 5Месяцев на трекере: 5Месяцев на трекере: 5Месяцев на трекере: 5Месяцев на трекере: 5
 
Раздал: 393.52 ГБ
Зарегистрирован: 06 авг 2016, 09:35
Откуда: СССР

Награды: 1
За помощь проекту (1)

Сообщение bortnikov » 09 янв 2017, 14:42

Вот это подарок в наступившем Новом году!!! Большое Cпасибо, Сергей!
Аватара пользователя
bortnikov
Опытный Корсар
 
Месяцев на трекере: 5Месяцев на трекере: 5Месяцев на трекере: 5Месяцев на трекере: 5Месяцев на трекере: 5
 
Раздал: 155.97 ГБ
Зарегистрирован: 06 авг 2016, 10:08



Вернуться в Кино времён СССР