logo
Международный русскоязычный
торрент-трекер
Menu

Магазин-KorsaRDoublon
Поделиться с друзьями: 
Голосуй за Корсар и получай дублоны
Рейтинг торрент трекеров - UpTracker.ru

Сильверадо / Silverado (1985, Вестерн, боевик, приключения, BDRip 720p) - KORSAR

Сообщение filbi1976 » 08 янв 2017, 20:19

Сильверадо / Silverado


Год выпуска: 1985
Страна: США
Жанр: Вестерн, боевик, приключения
Продолжительность: 02:12:36
Перевод: Профессиональный (многоголосый), авторский.
Русские субтитры: нет

Режиссер: Лоуренс Каздан / Lawrence Kasdan

В ролях: Кевин Клайн, Скотт Гленн, Кевин Костнер, Дэнни Гловер, Джон Клиз, Розанна Аркетт, Брайан Деннехи, Рэймонд Бэйкер, Линда Хант, Джефф Голдблюм

Описание: Сильверадо - далекая страна, куда стремится и простой люд, и бесшабашные ковбои, и жестокие бандиты. Но попасть туда дано не каждому - долгий путь таит в себе множество опасностей. Только тот, кто сумеет не сплоховать в трудную минуту, только самый быстрый и смелый сможет увидеть Сильверадо...

Качество: BDRip 720p
Видео кодек: MPEG-4/AVC
Аудио кодек: AC3
Видео: 1280x720, 23.976 fps, 7777 Кбит/с
Аудио #1: Русский (Видеосервис), AC3, 48khz, 2ch, 192 kbps
Аудио #2: Русский (Живов), AC3, 48khz, 6ch, 384 kbps
Аудио #3: Русский (Гаврилов), AC3, 48khz, 2ch, 192 kbps
Аудио #4: Русский (Володарский), AC3, 48khz, 2ch, 192 kbps
Аудио #5: Английский, AC3, 48khz, 6ch, 640 kbps
Субтитры: Английские

  • x264 [info]: frame I:1317 Avg QP:17.28 size:142964
  • x264 [info]: frame P:37749 Avg QP:19.32 size: 66323
  • x264 [info]: frame B:151709 Avg QP:20.79 size: 33234
==========================================================================
Общее
Уникальный идентификатор : 240797920560244819340729279657989930557 (0xB527FE196A769B4DA310E94EAB187E3D)
Полное имя : D:\Сильверадо_1985-BDRip 720p.mkv
Формат : Matroska
Версия формата : Version 2
Размер файла : 8,69 Гбайт
Продолжительность : 2 ч. 12 м.
Общий поток : 9379 Кбит/сек
Дата кодирования : UTC 2017-01-08 16:53:15
Программа кодирования : mkvmerge v5.8.0 ('No Sleep / Pillow') built on Sep 2 2012 15:37:04
Библиотека кодирования : libebml v1.2.3 + libmatroska v1.3.0

Видео
Идентификатор : 1
Формат : AVC
Формат/Информация : Advanced Video Codec
Профиль формата : High@L4.1
Параметр CABAC формата : Да
Параметр ReFrames формата : 12 кадров
Идентификатор кодека : V_MPEG4/ISO/AVC
Продолжительность : 2 ч. 12 м.
Битрейт : 7777 Кбит/сек
Ширина : 1280 пикселей
Высота : 534 пикселя
Соотношение сторон : 2,40:1
Режим частоты кадров : Постоянный
Частота кадров : 23,976 (24000/1001) кадра/сек
Цветовое пространство : YUV
Субдискретизация насыщенности : 4:2:0
Битовая глубина : 8 бит
Тип развёртки : Прогрессивная
Бит/(Пиксели*Кадры) : 0.475
Размер потока : 7,03 Гбайт (81%)
Заголовок : korsar.tv
Библиотека кодирования : x264 core 148 r2744kMod b97ae06
Настройки программы : cabac=1 / ref=12 / deblock=1:-3:-3 / analyse=0x3:0x113 / me=umh / subme=11 / psy=1 / fade_compensate=0.00 / psy_rd=1.00:0.12 / mixed_ref=1 / me_range=40 / chroma_me=1 / trellis=2 / 8x8dct=1 / cqm=0 / deadzone=21,11 / fast_pskip=0 / chroma_qp_offset=-3 / threads=12 / lookahead_threads=3 / sliced_threads=0 / nr=0 / decimate=0 / interlaced=0 / bluray_compat=0 / constrained_intra=0 / bframes=11 / b_pyramid=2 / b_adapt=2 / b_bias=0 / direct=3 / weightb=1 / open_gop=0 / weightp=2 / keyint=240 / keyint_min=23 / scenecut=40 / intra_refresh=0 / rc_lookahead=80 / rc=2pass / mbtree=1 / bitrate=7777 / ratetol=1.0 / qcomp=0.70 / qpmin=0 / qpmax=39 / qpstep=4 / cplxblur=20.0 / qblur=0.5 / ip_ratio=1.20 / aq=3:0.90
Язык : English
Default : Да
Forced : Нет
Цветовой диапазон : Limited
Основные цвета : BT.709
Характеристики трансфера : BT.709
Коэффициенты матрицы : BT.709

Аудио #1
Идентификатор : 2
Формат : AC-3
Формат/Информация : Audio Coding 3
Расширение режима : CM (complete main)
Параметр Endianness формата : Big
Идентификатор кодека : A_AC3
Продолжительность : 2 ч. 12 м.
Вид битрейта : Постоянный
Битрейт : 192 Кбит/сек
Каналы : 2 канала
Расположение каналов : Front: L R
Частота : 48,0 КГц
Частота кадров : 31,250 кадров/сек (1536 spf)
Битовая глубина : 16 бит
Метод сжатия : С потерями
Размер потока : 182 Мбайт (2%)
Заголовок : MVO-Видеосервис
Язык : Russian
Default : Нет
Forced : Нет

Аудио #2
Идентификатор : 3
Формат : AC-3
Формат/Информация : Audio Coding 3
Расширение режима : CM (complete main)
Параметр Endianness формата : Big
Идентификатор кодека : A_AC3
Продолжительность : 2 ч. 12 м.
Вид битрейта : Постоянный
Битрейт : 384 Кбит/сек
Каналы : 6 каналов
Расположение каналов : Front: L C R, Side: L R, LFE
Частота : 48,0 КГц
Частота кадров : 31,250 кадров/сек (1536 spf)
Битовая глубина : 16 бит
Метод сжатия : С потерями
Задержка видео : 6 мс.
Размер потока : 364 Мбайт (4%)
Заголовок : Живов
Язык : Russian
Default : Да
Forced : Нет

Аудио #3
Идентификатор : 4
Формат : AC-3
Формат/Информация : Audio Coding 3
Расширение режима : CM (complete main)
Параметр Endianness формата : Big
Идентификатор кодека : A_AC3
Продолжительность : 2 ч. 12 м.
Вид битрейта : Постоянный
Битрейт : 192 Кбит/сек
Каналы : 2 канала
Расположение каналов : Front: L R
Частота : 48,0 КГц
Частота кадров : 31,250 кадров/сек (1536 spf)
Битовая глубина : 16 бит
Метод сжатия : С потерями
Задержка видео : 6 мс.
Размер потока : 182 Мбайт (2%)
Заголовок : Гаврилов
Язык : Russian
Default : Нет
Forced : Нет

Аудио #4
Идентификатор : 5
Формат : AC-3
Формат/Информация : Audio Coding 3
Расширение режима : CM (complete main)
Параметр Endianness формата : Big
Идентификатор кодека : A_AC3
Продолжительность : 2 ч. 12 м.
Вид битрейта : Постоянный
Битрейт : 192 Кбит/сек
Каналы : 2 канала
Расположение каналов : Front: L R
Частота : 48,0 КГц
Частота кадров : 31,250 кадров/сек (1536 spf)
Битовая глубина : 16 бит
Метод сжатия : С потерями
Задержка видео : 6 мс.
Размер потока : 182 Мбайт (2%)
Заголовок : Володарский
Язык : Russian
Default : Нет
Forced : Нет

Аудио #5
Идентификатор : 6
Формат : AC-3
Формат/Информация : Audio Coding 3
Расширение режима : CM (complete main)
Параметр Endianness формата : Big
Идентификатор кодека : A_AC3
Продолжительность : 2 ч. 12 м.
Вид битрейта : Постоянный
Битрейт : 640 Кбит/сек
Каналы : 6 каналов
Расположение каналов : Front: L C R, Side: L R, LFE
Частота : 48,0 КГц
Частота кадров : 31,250 кадров/сек (1536 spf)
Битовая глубина : 16 бит
Метод сжатия : С потерями
Размер потока : 607 Мбайт (7%)
Язык : English
Default : Нет
Forced : Нет

Текст
Идентификатор : 7
Формат : UTF-8
Идентификатор кодека : S_TEXT/UTF8
Идентификатор кодека/Информация : UTF-8 Plain Text
Язык : English
Default : Да
Forced : Нет

Меню
00:00:00.000 : en:Chapter 01
00:10:22.829 : en:Chapter 02
00:17:56.200 : en:Chapter 03
00:23:06.968 : en:Chapter 04
00:31:43.067 : en:Chapter 05
00:39:57.395 : en:Chapter 06
00:51:07.105 : en:Chapter 07
00:56:31.304 : en:Chapter 08
01:05:50.154 : en:Chapter 09
01:15:11.340 : en:Chapter 10
01:21:49.154 : en:Chapter 11
01:30:38.349 : en:Chapter 12
01:38:50.256 : en:Chapter 13
01:44:53.370 : en:Chapter 14
01:50:10.395 : en:Chapter 15
01:59:54.228 : en:Chapter 16


Аватара пользователя
filbi1976
Главный-Корсар
 
 

Награды: 21
За отличные раздачи и качество (15) За участие в конкурсах (1) Верный Сид (4)
  • Торрент
Для скачивания торрента необходимо зарегистрироваться или войти на трекер.

Сообщение mister.hats » 08 янв 2017, 20:52

Спасибо Серега :hi:

Тот кто не с нами, тот против нас
Аватара пользователя
mister.hats
Заслуженный Корсар-Вип
 
 

Награды: 10
За помощь проекту (2) Лучший по количеству кубков (1) За отличные раздачи и качество (3) За отличные комментарии (1) Верный Сид (3)

Сообщение filbi1976 » 08 янв 2017, 20:53

pavel gnus писал(а):Может быть возьмётесь за "Hombre" с переводом "1 канала" и качеством 720p? Недавно я коммент с просьбой оставлял в раздаче AVC.

А Вы пишите это в столе заказов, ибо специально и был создан, тогда эти коменты не потеряются.
Касаемо 720р, то он уже есть, проще прикрутить туда дорогу, только я если честно не понял о какой идёт речь.
ЗЫ
Если речь о записи HDTV 1080i, то не каждый за это возьмётся, ибо там вырезки рекламы и звук совпадать не будет, уже не говоря что и продолжительность другая, так что тут только искать спецов по звуку, если там действительно другой перевод.
Аватара пользователя
filbi1976
Главный-Корсар
 
 

Награды: 21
За отличные раздачи и качество (15) За участие в конкурсах (1) Верный Сид (4)

Сообщение Digor » 09 янв 2017, 14:17

Спасибо большое, Сергей! :hi:
Один из любимых жанров зарубежного кино в юности.
Аватара пользователя
Digor
Главный Модератор-Корсар
 
 

Награды: 6
За помощь проекту (2) Лучший по количеству кубков (1) Верный Сид (2)


Вернуться в Зарубежное кино (1981-1990 / HD Video)



Uptime по данным Ping-Admin.Ru - сервиса мониторинга доступности сайтов