logo
Международный русскоязычный
торрент-трекер

Чучело (1983, драма, HDTVRip 720p)

Сообщение filbi1976 » 06 янв 2017, 23:29

Чучело


Жанр: драма
Год выпуска: 1983
Продолжительность: 01:02:53 + 00:57:24

Режиссёр: Ролан Быков

В ролях: Кристина Орбакайте, Юрий Никулин, Дмитрий Егоров, Елена Санаева, Светлана Крючкова, Ролан Быков, Павел Санаев, Андрей Ломов, Николай Манвелов, Марина Мартанова, Анна Толмачева, Ксения Филиппова, Константин Чеховский, Олег Быков, Дмитрий Кружилин, Маша Артёмова, Антонина Вольская, Ольга Токарева, Елена Вольская, Олег Штефанко, Олег Осетинский

Описание: В обычную школу в обычном провинциальном городке приходит новенькая, Лена Бессольцева. Она поселяется у деда, Николая Николаевича, бывшего военного, коллекционера картин, которого здесь недолюбливают: слишком замкнутую жизнь ведет, на всём экономит, а для чего, почему - окружающим непонятно. Непонятное же всегда подозрительно. Естественно, и на внучку сразу же падает тень. Тем более, что в классе все роли уже распределены: есть лидеры, есть красавицы, есть отличники, есть придурки. И когда один из "достойнейших" совершает подлость, свалить вину за нее проще всего на новенькую, а затем - проучить, напугать, подчинить. Ей дадут прозвище "чучело"...



Файл
Кодек: х264
Качество: HDTVRip 720p
Видео: MPEG-4 AVC, 1280x548, 25 fps, 6500 Кбит/с
Звук: AC3, 6 ch, 448 Кбит/с, AC3, 1 ch, 224 Кбит/с


  • x264 [info]: frame I:489 Avg QP:17.75 size:135694
  • x264 [info]: frame P:26031 Avg QP:19.66 size: 67031
  • x264 [info]: frame B:67824 Avg QP:21.19 size: 18501
======================================================================
Общее
Уникальный идентификатор : 208465139802778275176733825202346585393 (0x9CD4ECEE44FEAF3C9023AA8845B8ED31)
Полное имя : R:\МОИ РИПЫ\Чучело_1983-HDTVRip 720p\Чучело-1.mkv
Формат : Matroska
Версия формата : Version 2
Размер файла : 3,15 Гбайт
Продолжительность : 1 ч. 2 м.
Общий поток : 7174 Кбит/сек
Дата кодирования : UTC 2017-01-06 20:47:41
Программа кодирования : mkvmerge v5.8.0 ('No Sleep / Pillow') built on Sep 2 2012 15:37:04
Библиотека кодирования : libebml v1.2.3 + libmatroska v1.3.0

Видео
Идентификатор : 1
Формат : AVC
Формат/Информация : Advanced Video Codec
Профиль формата : High@L4.1
Параметр CABAC формата : Да
Параметр ReFrames формата : 11 кадров
Идентификатор кодека : V_MPEG4/ISO/AVC
Продолжительность : 1 ч. 2 м.
Битрейт : 6500 Кбит/сек
Ширина : 1280 пикселей
Высота : 548 пикселей
Соотношение сторон : 2,35:1
Режим частоты кадров : Постоянный
Частота кадров : 25,000 кадров/сек
Цветовое пространство : YUV
Субдискретизация насыщенности : 4:2:0
Битовая глубина : 8 бит
Тип развёртки : Прогрессивная
Бит/(Пиксели*Кадры) : 0.371
Размер потока : 2,79 Гбайт (89%)
Заголовок : korsar.tv
Библиотека кодирования : x264 core 148 r2744kMod b97ae06
Настройки программы : cabac=1 / ref=11 / deblock=1:-2:-2 / analyse=0x3:0x133 / me=umh / subme=10 / psy=1 / fade_compensate=0.00 / psy_rd=1.00:0.10 / mixed_ref=1 / me_range=32 / chroma_me=1 / trellis=2 / 8x8dct=1 / cqm=0 / deadzone=21,11 / fast_pskip=0 / chroma_qp_offset=-3 / threads=12 / lookahead_threads=3 / sliced_threads=0 / nr=0 / decimate=0 / interlaced=0 / bluray_compat=0 / constrained_intra=0 / bframes=10 / b_pyramid=2 / b_adapt=2 / b_bias=0 / direct=3 / weightb=1 / open_gop=0 / weightp=2 / keyint=250 / keyint_min=25 / scenecut=40 / intra_refresh=0 / rc_lookahead=40 / rc=2pass / mbtree=0 / bitrate=6500 / ratetol=1.0 / qcomp=0.63 / qpmin=0 / qpmax=39 / qpstep=4 / cplxblur=20.0 / qblur=0.5 / vbv_maxrate=50000 / vbv_bufsize=62500 / nal_hrd=none / filler=0 / ip_ratio=1.20 / pb_ratio=1.30 / aq=2:0.80
Язык : English
Default : Да
Forced : Нет
Цветовой диапазон : Limited
Основные цвета : BT.709
Характеристики трансфера : BT.709
Коэффициенты матрицы : BT.709

Аудио #1
Идентификатор : 2
Формат : AC-3
Формат/Информация : Audio Coding 3
Расширение режима : CM (complete main)
Параметр Endianness формата : Big
Идентификатор кодека : A_AC3
Продолжительность : 1 ч. 2 м.
Вид битрейта : Постоянный
Битрейт : 448 Кбит/сек
Каналы : 6 каналов
Расположение каналов : Front: L C R, Side: L R, LFE
Частота : 48,0 КГц
Частота кадров : 31,250 кадров/сек (1536 spf)
Битовая глубина : 16 бит
Метод сжатия : С потерями
Размер потока : 202 Мбайт (6%)
Язык : Russian
Default : Да
Forced : Нет

Аудио #2
Идентификатор : 3
Формат : AC-3
Формат/Информация : Audio Coding 3
Расширение режима : CM (complete main)
Параметр Endianness формата : Big
Идентификатор кодека : A_AC3
Продолжительность : 1 ч. 2 м.
Вид битрейта : Постоянный
Битрейт : 224 Кбит/сек
Каналы : 1 канал
Расположение каналов : Front: C
Частота : 48,0 КГц
Частота кадров : 31,250 кадров/сек (1536 spf)
Битовая глубина : 16 бит
Метод сжатия : С потерями
Размер потока : 101 Мбайт (3%)
Язык : Russian
Default : Нет
Forced : Нет

Меню
00:00:00.000 : en:Chapter 1
00:03:21.120 : en:Chapter 2
00:08:54.240 : en:Chapter 3
00:12:42.240 : en:Chapter 4
00:15:36.000 : en:Chapter 5
00:24:35.040 : en:Chapter 6
00:32:12.480 : en:Chapter 7
00:39:09.600 : en:Chapter 8
00:45:57.600 : en:Chapter 9
00:52:26.880 : en:Chapter 10
00:55:17.760 : en:Chapter 11
00:59:06.240 : en:Chapter 12

Аватара пользователя
filbi1976
Главный-Корсар
 
Месяцев на трекере: 5Месяцев на трекере: 5Месяцев на трекере: 5Месяцев на трекере: 5Месяцев на трекере: 5
 
Раздал: 48.18 ТБ
Зарегистрирован: 03 авг 2016, 12:59
Откуда: СССР

  • Торрент
Автор: filbi1976 Хэш: ---
Добавлен: 06 янв 2017, 23:29 Приватный: Нет (DHT включён)
Статус: Проверен
Размер: 6 ГБ (6 444 423 557 байт)
Изменил:
---
Скачали: 5 (Раздающих: 40%)
Причина:
---
Здоровье: 100%
Сидеров: 2 Личеров: 0
Скорость раздачи: 0 байт/сек Скорость скачивания: 0 байт/сек
Последний сидер: 1 минуту 53 секунды назад Последний личер: 55 минут 14 секунд назад
Для скачивания торрента необходимо зарегистрироваться или войти на трекер.

Сообщение filbi1976 » 06 янв 2017, 23:29

Приятного просмотра! :hi:
http://screenshotcomparison.com/compari ... /picture:0
Аватара пользователя
filbi1976
Главный-Корсар
 
Месяцев на трекере: 5Месяцев на трекере: 5Месяцев на трекере: 5Месяцев на трекере: 5Месяцев на трекере: 5
 
Раздал: 48.18 ТБ
Зарегистрирован: 03 авг 2016, 12:59
Откуда: СССР


Сообщение Sanechek » 07 янв 2017, 01:03

Сергей, спасибо! Хороший фильм.
Аватара пользователя
Sanechek
Опытный Релизёр-Корсар
 
Месяцев на трекере: 2Месяцев на трекере: 2
 
Раздал: 152.2 ГБ
Зарегистрирован: 10 ноя 2016, 09:29
Откуда: СССР


Сообщение verybigpapa » 07 янв 2017, 06:54

Очень сильный фильм! Огромное спасибо, уважаемый filbi1976. :hi:
Улыбайтесь, господа! Улыбайтесь!
Аватара пользователя
verybigpapa
Корсар-Вип
 
Месяцев на трекере: 5Месяцев на трекере: 5Месяцев на трекере: 5Месяцев на трекере: 5Месяцев на трекере: 5
 
Раздал: 167.38 ГБ
Зарегистрирован: 03 авг 2016, 16:00
Откуда: СССР

Награды: 1
За помощь проекту (1)

Сообщение Bulfrogg » 07 янв 2017, 11:06

filbi1976, Сергей!!!
У тебя выходные бывают??? ;)
Спасибо за фильм :good:
Всех с наступившим Рождеством :drinks:
Аватара пользователя
Bulfrogg
Уважаемый Корсар
 
Месяцев на трекере: 4Месяцев на трекере: 4Месяцев на трекере: 4Месяцев на трекере: 4
 
Раздал: 1.84 ТБ
Зарегистрирован: 19 сен 2016, 09:21


Сообщение mister.hats » 07 янв 2017, 15:48

Спасибо Сереж :yahoo: :drinks:
Тот кто не с нами,тот против нас
Аватара пользователя
mister.hats
Корсар-Вип
 
Месяцев на трекере: 5Месяцев на трекере: 5Месяцев на трекере: 5Месяцев на трекере: 5Месяцев на трекере: 5
 
Раздал: 670.62 ГБ
Зарегистрирован: 03 авг 2016, 13:45
Откуда: СССР

Награды: 1
За помощь проекту (1)

Сообщение bagrad » 08 янв 2017, 15:04

Спасибо Сергей! :hi: Очень интересный фильм, сильный! Кристина Орбакайте здесь на высоте!!!
Dum spíro, spéro!
Аватара пользователя
bagrad
Корсар-Вип
 
Месяцев на трекере: 5Месяцев на трекере: 5Месяцев на трекере: 5Месяцев на трекере: 5Месяцев на трекере: 5
 
Раздал: 393.52 ГБ
Зарегистрирован: 06 авг 2016, 09:35
Откуда: СССР

Награды: 1
За помощь проекту (1)


Вернуться в Кино времён СССР (HD Video)