logo
Международный русскоязычный
торрент-трекер

Когда опаздывают в ЗАГС (1991, Комедия, DVDRip-AVC)

Сообщение filbi1976 » 07 янв 2017, 17:07

Название: Когда опаздывают в ЗАГС...
Год выхода: 1991
Жанр: мюзикл, комедия
Режиссер: Виталий Макаров
В ролях: Владислав Демченко, Ирина Феофанова, Ирина Муравьёва, Михаил Светин, Роман Ткачук, Инна Ульянова, Сергей Зуев, Валерий Немешаев, Ирина Безруков

Описание: Кооператор Константин, вернувшись из командировки, застает у себя дома незнакомую девушку. Как выяснилось, его приятель отдал ключи от Костиной квартиры своим друзьям-студентам, которые должны были пожениться.Но невеста Светлана опоздала в ЗАГС, и ревнивый жених расстался с ней, не выслушав объяснений. Костя разрешает Светлане остаться в квартире еще на несколько дней

Выпущено: СССР
Продолжительность: 01:29:11

#7#7

Файл
Кодек: х264
Качество: DVDRip-AVC
Видео: MPEG-4 AVC, 696x572@744x572, 25 fps, 2500 Кбит/с
Звук: AC3, 6 ch, 448 Кбит/с, AC3, 2 ch, 224 Кбит/с


  • x264 [info]: frame I:716 Avg QP:17.99 size: 55452
  • x264 [info]: frame P:25252 Avg QP:20.02 size: 27929
  • x264 [info]: frame B:107796 Avg QP:21.90 size: 8599
=====================================================================================
Общее
Уникальный идентификатор : 222560722578602928775936252964336423541 (0xA76FA2D147AD3A479CBEC8FBFCE9D275)
Полное имя : D:\Когда опаздывают в ЗАГС_1991-DVDRip-AVC.mkv
Формат : Matroska
Версия формата : Version 2
Размер файла : 1,98 Гбайт
Продолжительность : 1 ч. 29 м.
Общий поток : 3174 Кбит/сек
Дата кодирования : UTC 2017-01-07 17:06:47
Программа кодирования : mkvmerge v5.8.0 ('No Sleep / Pillow') built on Sep 2 2012 15:37:04
Библиотека кодирования : libebml v1.2.3 + libmatroska v1.3.0

Видео
Идентификатор : 1
Формат : AVC
Формат/Информация : Advanced Video Codec
Профиль формата : High@L4.1
Параметр CABAC формата : Да
Параметр ReFrames формата : 15 кадров
Идентификатор кодека : V_MPEG4/ISO/AVC
Продолжительность : 1 ч. 29 м.
Битрейт : 2500 Кбит/сек
Ширина : 696 пикселей
Высота : 572 пикселя
Соотношение сторон : 1,297
Соотношение сторон в оригинале : 1,298
Режим частоты кадров : Постоянный
Частота кадров : 25,000 кадров/сек
Цветовое пространство : YUV
Субдискретизация насыщенности : 4:2:0
Битовая глубина : 8 бит
Тип развёртки : Прогрессивная
Бит/(Пиксели*Кадры) : 0.251
Размер потока : 1,52 Гбайт (77%)
Библиотека кодирования : x264 core 148 r2744kMod b97ae06
Настройки программы : cabac=1 / ref=15 / deblock=1:-2:-2 / analyse=0x3:0x133 / me=umh / subme=10 / psy=1 / fade_compensate=0.00 / psy_rd=1.05:0.10 / mixed_ref=1 / me_range=32 / chroma_me=1 / trellis=2 / 8x8dct=1 / cqm=0 / deadzone=21,11 / fast_pskip=0 / chroma_qp_offset=-3 / threads=12 / lookahead_threads=2 / sliced_threads=0 / nr=0 / decimate=0 / interlaced=0 / bluray_compat=0 / constrained_intra=0 / bframes=9 / b_pyramid=2 / b_adapt=2 / b_bias=0 / direct=3 / weightb=1 / open_gop=0 / weightp=2 / keyint=250 / keyint_min=25 / scenecut=40 / intra_refresh=0 / rc=2pass / mbtree=0 / bitrate=2500 / ratetol=1.0 / qcomp=0.63 / qpmin=0 / qpmax=39 / qpstep=4 / cplxblur=20.0 / qblur=0.5 / ip_ratio=1.20 / pb_ratio=1.30 / aq=2:0.90
Язык : English
Default : Да
Forced : Нет
Цветовой диапазон : Limited
Основные цвета : BT.601 PAL
Характеристики трансфера : BT.470 System B, BT.470 System G
Коэффициенты матрицы : BT.601

Аудио #1
Идентификатор : 2
Формат : AC-3
Формат/Информация : Audio Coding 3
Расширение режима : CM (complete main)
Параметр Endianness формата : Big
Идентификатор кодека : A_AC3
Продолжительность : 1 ч. 29 м.
Вид битрейта : Постоянный
Битрейт : 448 Кбит/сек
Каналы : 6 каналов
Расположение каналов : Front: L C R, Side: L R, LFE
Частота : 48,0 КГц
Частота кадров : 31,250 кадров/сек (1536 spf)
Битовая глубина : 16 бит
Метод сжатия : С потерями
Размер потока : 286 Мбайт (14%)
Язык : Russian
Default : Да
Forced : Нет

Аудио #2
Идентификатор : 3
Формат : AC-3
Формат/Информация : Audio Coding 3
Расширение режима : CM (complete main)
Параметр Endianness формата : Big
Идентификатор кодека : A_AC3
Продолжительность : 1 ч. 29 м.
Вид битрейта : Постоянный
Битрейт : 224 Кбит/сек
Каналы : 2 канала
Расположение каналов : Front: L R
Частота : 48,0 КГц
Частота кадров : 31,250 кадров/сек (1536 spf)
Битовая глубина : 16 бит
Метод сжатия : С потерями
Размер потока : 143 Мбайт (7%)
Язык : Russian
Default : Нет
Forced : Нет


Аватара пользователя
filbi1976
Главный-Корсар
 
Месяцев на трекере: 5Месяцев на трекере: 5Месяцев на трекере: 5Месяцев на трекере: 5Месяцев на трекере: 5
 
Раздал: 43.87 ТБ
Зарегистрирован: 03 авг 2016, 12:59
Откуда: СССР

  • Торрент
Автор: filbi1976 Хэш: ---
Добавлен: 07 янв 2017, 17:07 Приватный: Нет (DHT включён)
Статус: Проверен
Размер: 1.98 ГБ (2 122 710 705 байт)
Изменил:
---
Скачали: 7 (Раздающих: 29%)
Причина:
---
Здоровье: 100%
Сидеров: 2 Личеров: 0
Скорость раздачи: 0 байт/сек Скорость скачивания: 0 байт/сек
Последний сидер: 8 минут 23 секунды назад Последний личер: 9 дней 10 часов 4 минуты 37 секунд назад
Для скачивания торрента необходимо зарегистрироваться или войти на трекер.

Сообщение filbi1976 » 07 янв 2017, 17:08

Исходник "чудо", но что то вылепил. :hi:
http://screenshotcomparison.com/compari ... /picture:1
Аватара пользователя
filbi1976
Главный-Корсар
 
Месяцев на трекере: 5Месяцев на трекере: 5Месяцев на трекере: 5Месяцев на трекере: 5Месяцев на трекере: 5
 
Раздал: 43.87 ТБ
Зарегистрирован: 03 авг 2016, 12:59
Откуда: СССР


Сообщение verybigpapa » 07 янв 2017, 18:26

Уважаемый filbi1976, большое спасибо. :hi:
Улыбайтесь, господа! Улыбайтесь!
Аватара пользователя
verybigpapa
Корсар-Вип
 
Месяцев на трекере: 5Месяцев на трекере: 5Месяцев на трекере: 5Месяцев на трекере: 5Месяцев на трекере: 5
 
Раздал: 149.66 ГБ
Зарегистрирован: 03 авг 2016, 16:00
Откуда: СССР

Награды: 1
За помощь проекту (1)

Сообщение kwazar312 » 07 янв 2017, 18:48

Уважаемый filbi1976,огромное спасибо за фильм.ВЫ пишите,что исходник плохой,но после вашей обработки все-равно фильм хорошего качества будет.Я этот фильм смотрел на магнитофонной пленке с записью LP,переписанной с другого магнитофона-полнейший мрак,но фильм понравился.Удачи ВАМ.
Аватара пользователя
kwazar312
Уважаемый Корсар
 
Месяцев на трекере: 5Месяцев на трекере: 5Месяцев на трекере: 5Месяцев на трекере: 5Месяцев на трекере: 5
 
Раздал: 1 ТБ
Зарегистрирован: 08 авг 2016, 06:50


Сообщение bagrad » 08 янв 2017, 14:55

Спасибо Сергей!!! :hi:
Dum spíro, spéro!
Аватара пользователя
bagrad
Корсар-Вип
 
Месяцев на трекере: 5Месяцев на трекере: 5Месяцев на трекере: 5Месяцев на трекере: 5Месяцев на трекере: 5
 
Раздал: 378.69 ГБ
Зарегистрирован: 06 авг 2016, 09:35
Откуда: СССР

Награды: 1
За помощь проекту (1)

Сообщение mister.hats » 08 янв 2017, 14:58

Спасибо Серега :yahoo: :hi:
Тот кто не с нами,тот против нас
Аватара пользователя
mister.hats
Корсар-Вип
 
Месяцев на трекере: 5Месяцев на трекере: 5Месяцев на трекере: 5Месяцев на трекере: 5Месяцев на трекере: 5
 
Раздал: 658.89 ГБ
Зарегистрирован: 03 авг 2016, 13:45
Откуда: СССР

Награды: 1
За помощь проекту (1)


Вернуться в Кино времён СССР

cron