logo
Международный русскоязычный
торрент-трекер
Menu
Магазин-KorsaRDoublon
Поделиться с друзьями: 
Голосуй за Корсар и получай дублоны
Рейтинг торрент трекеров - UpTracker.ru

Волшебная сила (1970, Комедия, DVDRip-AVC) - KORSAR

Сообщение filbi1976 » 08 янв 2017, 04:30

Название: Волшебная сила
Год выхода: 1970
Жанр: Комедия
Режиссер: Наум Бирман
В ролях: Аркадий Райкин, Мила Васютинская, Костя Ценкаев, Нина Ургант, Людмила Сенчина, Николай Трофимов

О фильме: Классическая комедия по рассказам Виктора Драгунского состоит из трех новелл. Первая, о том, как первоклассники помогали "Неуловимым Мстителям" разбить "белых". Вторая, о первой любви и о знании литературы. Третья, самая знаменитая, о том, как бывший ученик помогает своей бывшей учительнице перевоспитать хамоватых соседей.

"Мстители из 2-го В"
В ролях: Людмила Сенчина, Николай Трофимов, Костя Цепкаев, Мила Васютинская, Игорь Богданов.
Учеников второго класса ведут в кино на приключеческий фильм. Забыв, что они в кинотеатре, ребята решают помочь "нашим".
"Здравствуй, Пушкин!"
В ролях: Костя Ценкаев, Нина Ургант, Таня Доронина, Игорь Королев, Ваня Цанов, Слава Горошенков, Дима Рапопорт.
О мальчике, объясняющемся в любви девочке при помощи поэмы Пушкина "Евгений Онегин".
"Волшебная сила искусства"
В ролях: Аркадий Райкин, Мила Васютинская, Павел Панков, Анна Лисянская, Ирина Гошева.
О том, как бывший ученик, использовав свое актерское дарование, помог своей старой учительнице усмирить соседей.

Выпущено: СССР
Продолжительность: 01:04:45
Перевод: не требуется

Файл
Кодек: х264
Качество: DVDRip-AVC
Видео: MPEG-4 AVC, 718x572@765x572, 25 fps, 2650 Кбит/с
Звук: AC3, 6 ch, 448 Кбит/с, AC3, 1 ch, 224 Кбит/с


  • x264 [info]: frame I:552 Avg QP:17.66 size: 62630
  • x264 [info]: frame P:29147 Avg QP:19.79 size: 26553
  • x264 [info]: frame B:67657 Avg QP:21.53 size: 7122
========================================================================
Общее
Уникальный идентификатор : 204855653760872786094597634464116914948 (0x9A1DC3877275B2E097B944C659303B04)
Полное имя : D:\Волшебная сила_1970-DVDRip-AVC.mkv
Формат : Matroska
Версия формата : Version 2
Размер файла : 1,51 Гбайт
Продолжительность : 1 ч. 4 м.
Общий поток : 3325 Кбит/сек
Дата кодирования : UTC 2017-01-08 01:20:38
Программа кодирования : mkvmerge v5.8.0 ('No Sleep / Pillow') built on Sep 2 2012 15:37:04
Библиотека кодирования : libebml v1.2.3 + libmatroska v1.3.0

Видео
Идентификатор : 1
Формат : AVC
Формат/Информация : Advanced Video Codec
Профиль формата : High@L4.1
Параметр CABAC формата : Да
Параметр ReFrames формата : 14 кадров
Идентификатор кодека : V_MPEG4/ISO/AVC
Продолжительность : 1 ч. 4 м.
Битрейт : 2650 Кбит/сек
Ширина : 718 пикселей
Высота : 572 пикселя
Соотношение сторон : 4:3
Соотношение сторон в оригинале : 4:3
Режим частоты кадров : Постоянный
Частота кадров : 25,000 кадров/сек
Цветовое пространство : YUV
Субдискретизация насыщенности : 4:2:0
Битовая глубина : 8 бит
Тип развёртки : Прогрессивная
Бит/(Пиксели*Кадры) : 0.258
Размер потока : 1,17 Гбайт (78%)
Библиотека кодирования : x264 core 148 r2744kMod b97ae06
Настройки программы : cabac=1 / ref=14 / deblock=1:-2:-2 / analyse=0x3:0x133 / me=umh / subme=10 / psy=1 / fade_compensate=0.00 / psy_rd=1.05:0.13 / mixed_ref=1 / me_range=32 / chroma_me=1 / trellis=2 / 8x8dct=1 / cqm=0 / deadzone=21,11 / fast_pskip=0 / chroma_qp_offset=-3 / threads=12 / lookahead_threads=2 / sliced_threads=0 / nr=0 / decimate=0 / interlaced=0 / bluray_compat=0 / constrained_intra=0 / bframes=8 / b_pyramid=2 / b_adapt=2 / b_bias=0 / direct=3 / weightb=1 / open_gop=0 / weightp=2 / keyint=250 / keyint_min=25 / scenecut=40 / intra_refresh=0 / rc=2pass / mbtree=0 / bitrate=2650 / ratetol=1.0 / qcomp=0.63 / qpmin=0 / qpmax=39 / qpstep=4 / cplxblur=20.0 / qblur=0.5 / ip_ratio=1.20 / pb_ratio=1.30 / aq=1:1.00
Язык : English
Default : Да
Forced : Нет
Цветовой диапазон : Limited
Основные цвета : BT.601 PAL
Характеристики трансфера : BT.470 System B, BT.470 System G
Коэффициенты матрицы : BT.601

Аудио #1
Идентификатор : 2
Формат : AC-3
Формат/Информация : Audio Coding 3
Расширение режима : CM (complete main)
Параметр Endianness формата : Big
Идентификатор кодека : A_AC3
Продолжительность : 1 ч. 4 м.
Вид битрейта : Постоянный
Битрейт : 448 Кбит/сек
Каналы : 6 каналов
Расположение каналов : Front: L C R, Side: L R, LFE
Частота : 48,0 КГц
Частота кадров : 31,250 кадров/сек (1536 spf)
Битовая глубина : 16 бит
Метод сжатия : С потерями
Задержка видео : 156 мс.
Размер потока : 208 Мбайт (13%)
Язык : Russian
Default : Да
Forced : Нет

Аудио #2
Идентификатор : 3
Формат : AC-3
Формат/Информация : Audio Coding 3
Расширение режима : CM (complete main)
Параметр Endianness формата : Big
Идентификатор кодека : A_AC3
Продолжительность : 1 ч. 4 м.
Вид битрейта : Постоянный
Битрейт : 224 Кбит/сек
Каналы : 1 канал
Расположение каналов : Front: C
Частота : 48,0 КГц
Частота кадров : 31,250 кадров/сек (1536 spf)
Битовая глубина : 16 бит
Метод сжатия : С потерями
Задержка видео : 154 мс.
Размер потока : 104 Мбайт (7%)
Язык : Russian
Default : Нет
Forced : Нет

Аватара пользователя
filbi1976
Главный-Корсар
 
 

Награды: 14
За отличные раздачи (10) Верный Сид (4)
  • Торрент
Для скачивания торрента необходимо зарегистрироваться или войти на трекер.

Сообщение verybigpapa » 08 янв 2017, 08:16

Прекрасный фильм! Райкин, как всегда, неподражаем! Огромное спасибо, уважаемый filbi1976! :hi:
Улыбайтесь, господа! Улыбайтесь!
Аватара пользователя
verybigpapa
Заслуженный Корсар-Вип
 
 

Награды: 13
За помощь проекту (5) Лучший по количеству кубков (2) За отличные комментарии (2) Верный Сид (4)

Сообщение Digor » 08 янв 2017, 13:23

Спасибо огромное, Сергей, за отличный фильм! :hi:
Аватара пользователя
Digor
Заслуженный Корсар-Вип
 
 

Награды: 4
За помощь проекту (1) Лучший по количеству кубков (1) Верный Сид (2)

Сообщение mister.hats » 08 янв 2017, 13:30

Спасибо Серега :hi:
На мой взгляд,это самая гениальная роль Райкина. :dance:
:drinks:

Тот кто не с нами, тот против нас
Аватара пользователя
mister.hats
Заслуженный Корсар-Вип
 
 

Награды: 5
За помощь проекту (1) За отличные комментарии (1) Верный Сид (3)

Сообщение bagrad » 08 янв 2017, 17:52

Спасибо Сергей! :hi: Отличный фильм! Гениальный Райкин, это вне конкуренции, но "Мстители из 2-го В" это просто чудо кинематографии! :good: Сам был таким, как и герои этого фильма! :yahoo:
Dum spíro, spéro!
Аватара пользователя
bagrad
Заслуженный Корсар-Вип
 
 

Награды: 11
За помощь проекту (1) Лучший по количеству кубков (5) За отличные комментарии (1) Верный Сид (4)


Вернуться в Кино времён СССР



мониторинг сайтов