logo
Международный русскоязычный
торрент-трекер

Орел и решка (1995, трагикомедия, HDTVRip 720p)

Сообщение filbi1976 » 05 янв 2017, 16:08

Название: Орел и решка
Год выхода: 1995
Жанр: комедия, мелодрама
Режиссер: Георгий Данелия
В ролях: Кирилл Пирогов, Полина Кутепова, Станислав Говорухин, Леонид Ярмольник, Иван Рыжов, Олег Басилашвили, Сергей Швыдкой, Геннадий Назаров, Наталья Рассиева, Ольга Машна

Описание: Получив письмо о том, что его невеста вышла замуж, Олег срывается с нефтепромыслов, где зарабатывал на свадьбу, в Москву. Несмотря на то, что Лена уже живет с Вадиком, расхаживающим в купленном для Олега халате, он собирается отвоевать ее обратно. Ловко польстив шефу Лены, он устраивается к ней на работу, а случайный знакомый, новый русский Гоша, уезжает в Гонконг, оставил Олегу на попечение квартиру. Далее Олег неожиданно увлекается симпатичной девушкой Зиной и сопровождает ее в Сочи на свидание к мужу-зэку, но получив известие о том, что Лена попала в больницу после аварии, возвращается в Москву, чтобы отдать ради нее все, что у него есть

Выпущено: Россия
Продолжительность: 01:22:16

#7#7

Файл
Кодек: х264
Качество: HDTVRip 720p
Видео: MPEG-4 AVC, 960x720, 25 fps, 4750 Кбит/с
Звук: AC3, 6 ch, 448 Кбит/с, AC3, 1 ch, 224 Кбит/с


  • x264 [info]: frame I:46 Avg QP:17.30 size:113216
  • x264 [info]: frame P:568 Avg QP:19.29 size: 53069
  • x264 [info]: frame B:1894 Avg QP:21.31 size: 10751
================================================================================
Общее
Уникальный идентификатор : 226953653044064284446329912051086848037 (0xAABDAF02EFD868A89229A2832DDEF025)
Полное имя : D:\Орёл и решка_1995-HDTVRip 720p.mkv
Формат : Matroska
Версия формата : Version 2
Размер файла : 3,12 Гбайт
Продолжительность : 1 ч. 22 м.
Общий поток : 5423 Кбит/сек
Дата кодирования : UTC 2017-01-05 15:48:12
Программа кодирования : mkvmerge v5.8.0 ('No Sleep / Pillow') built on Sep 2 2012 15:37:04
Библиотека кодирования : libebml v1.2.3 + libmatroska v1.3.0

Видео
Идентификатор : 1
Формат : AVC
Формат/Информация : Advanced Video Codec
Профиль формата : High@L4.1
Параметр CABAC формата : Да
Параметр ReFrames формата : 12 кадров
Идентификатор кодека : V_MPEG4/ISO/AVC
Продолжительность : 1 ч. 22 м.
Битрейт : 4750 Кбит/сек
Ширина : 960 пикселей
Высота : 720 пикселей
Соотношение сторон : 4:3
Режим частоты кадров : Постоянный
Частота кадров : 25,000 кадров/сек
Цветовое пространство : YUV
Субдискретизация насыщенности : 4:2:0
Битовая глубина : 8 бит
Тип развёртки : Прогрессивная
Бит/(Пиксели*Кадры) : 0.275
Размер потока : 2,67 Гбайт (86%)
Заголовок : korsar.tv
Библиотека кодирования : x264 core 148 r2744kMod b97ae06
Настройки программы : cabac=1 / ref=12 / deblock=1:-2:-2 / analyse=0x3:0x133 / me=umh / subme=10 / psy=1 / fade_compensate=0.00 / psy_rd=1.03:0.10 / mixed_ref=1 / me_range=32 / chroma_me=1 / trellis=2 / 8x8dct=1 / cqm=0 / deadzone=21,11 / fast_pskip=0 / chroma_qp_offset=-3 / threads=12 / lookahead_threads=2 / sliced_threads=0 / nr=0 / decimate=0 / interlaced=0 / bluray_compat=0 / constrained_intra=0 / bframes=9 / b_pyramid=2 / b_adapt=2 / b_bias=0 / direct=3 / weightb=1 / open_gop=0 / weightp=2 / keyint=250 / keyint_min=25 / scenecut=40 / intra_refresh=0 / rc=2pass / mbtree=0 / bitrate=4750 / ratetol=1.0 / qcomp=0.63 / qpmin=0 / qpmax=39 / qpstep=4 / cplxblur=20.0 / qblur=0.5 / ip_ratio=1.20 / pb_ratio=1.30 / aq=2:0.90
Язык : English
Default : Да
Forced : Нет
Цветовой диапазон : Limited
Основные цвета : BT.709
Характеристики трансфера : BT.709
Коэффициенты матрицы : BT.709

Аудио #1
Идентификатор : 2
Формат : AC-3
Формат/Информация : Audio Coding 3
Расширение режима : CM (complete main)
Параметр Endianness формата : Big
Идентификатор кодека : A_AC3
Продолжительность : 1 ч. 22 м.
Вид битрейта : Постоянный
Битрейт : 448 Кбит/сек
Каналы : 6 каналов
Расположение каналов : Front: L C R, Side: L R, LFE
Частота : 48,0 КГц
Частота кадров : 31,250 кадров/сек (1536 spf)
Битовая глубина : 16 бит
Метод сжатия : С потерями
Задержка видео : 326 мс.
Размер потока : 264 Мбайт (8%)
Язык : Russian
Default : Да
Forced : Нет

Аудио #2
Идентификатор : 3
Формат : AC-3
Формат/Информация : Audio Coding 3
Расширение режима : CM (complete main)
Параметр Endianness формата : Big
Идентификатор кодека : A_AC3
Продолжительность : 1 ч. 22 м.
Вид битрейта : Постоянный
Битрейт : 224 Кбит/сек
Каналы : 1 канал
Расположение каналов : Front: C
Частота : 48,0 КГц
Частота кадров : 31,250 кадров/сек (1536 spf)
Битовая глубина : 16 бит
Метод сжатия : С потерями
Задержка видео : 324 мс.
Размер потока : 132 Мбайт (4%)
Язык : Russian
Default : Нет
Forced : Нет

Меню
00:00:00.000 : en:Chapter 1
00:06:16.200 : en:Chapter 2
00:11:29.160 : en:Chapter 3
00:20:25.800 : en:Chapter 4
00:28:58.440 : en:Chapter 5
00:38:03.720 : en:Chapter 6
00:44:47.400 : en:Chapter 7
00:50:59.880 : en:Chapter 8
00:58:53.640 : en:Chapter 9
01:06:36.840 : en:Chapter 10
01:14:10.920 : en:Chapter 11
01:19:46.920 : en:Chapter 12

Аватара пользователя
filbi1976
Главный-Корсар
 
Месяцев на трекере: 5Месяцев на трекере: 5Месяцев на трекере: 5Месяцев на трекере: 5Месяцев на трекере: 5
 
Раздал: 44.64 ТБ
Зарегистрирован: 03 авг 2016, 12:59
Откуда: СССР

  • Торрент
Автор: filbi1976 Хэш: ---
Добавлен: 05 янв 2017, 16:08 Приватный: Нет (DHT включён)
Статус: Проверен
Размер: 3.12 ГБ (3 346 410 487 байт)
Изменил:
---
Скачали: 9 (Раздающих: 11%)
Причина:
---
Здоровье: 25%
Сидеров: 1 Личеров: 4
Скорость раздачи: 0 байт/сек Скорость скачивания: 0 байт/сек
Последний сидер: 23 секунды назад Последний личер: 38 секунд назад
Для скачивания торрента необходимо зарегистрироваться или войти на трекер.

Сообщение Digor » 05 янв 2017, 16:28

Спасибо большое, Сергей!
Добротный фильм Данелия!
Аватара пользователя
Digor
Главный Модератор-Корсар
 
Месяцев на трекере: 5Месяцев на трекере: 5Месяцев на трекере: 5Месяцев на трекере: 5Месяцев на трекере: 5
 
Раздал: 2.92 ТБ
Зарегистрирован: 04 авг 2016, 20:25
Откуда: СССР

Награды: 1
За помощь проекту (1)

Сообщение kwazar312 » 05 янв 2017, 16:45

Уважаемый filbi1976,огромное спасибо за прекрасную кинокомедию.Ждал с нетерпением появления этого фильма.Кутепова и Ярмольник бесподобны.
Аватара пользователя
kwazar312
Уважаемый Корсар
 
Месяцев на трекере: 5Месяцев на трекере: 5Месяцев на трекере: 5Месяцев на трекере: 5Месяцев на трекере: 5
 
Раздал: 1.01 ТБ
Зарегистрирован: 08 авг 2016, 06:50


Сообщение verybigpapa » 05 янв 2017, 17:08

Уважаемый filbi1976, огромное спасибо. :hi:
Улыбайтесь, господа! Улыбайтесь!
Аватара пользователя
verybigpapa
Корсар-Вип
 
Месяцев на трекере: 5Месяцев на трекере: 5Месяцев на трекере: 5Месяцев на трекере: 5Месяцев на трекере: 5
 
Раздал: 149.66 ГБ
Зарегистрирован: 03 авг 2016, 16:00
Откуда: СССР

Награды: 1
За помощь проекту (1)

Сообщение kwazar312 » 05 янв 2017, 19:21

Уважаемый filbi1976,ВЫ продолжаете удивлять.Качество фильма очень хорошее,первый раз смотрю фильм с такой хорошей картинкой,даже и не верю,что такое может быть.Фильм очень нравится,а теперь еще и хорошее качество.Большое спасибо за раздачу.Удачи ВАМ.
Аватара пользователя
kwazar312
Уважаемый Корсар
 
Месяцев на трекере: 5Месяцев на трекере: 5Месяцев на трекере: 5Месяцев на трекере: 5Месяцев на трекере: 5
 
Раздал: 1.01 ТБ
Зарегистрирован: 08 авг 2016, 06:50


Сообщение filbi1976 » 06 янв 2017, 19:24

Всем пожалуйста! :hi:
Аватара пользователя
filbi1976
Главный-Корсар
 
Месяцев на трекере: 5Месяцев на трекере: 5Месяцев на трекере: 5Месяцев на трекере: 5Месяцев на трекере: 5
 
Раздал: 44.64 ТБ
Зарегистрирован: 03 авг 2016, 12:59
Откуда: СССР



Вернуться в Наше современное кино (HD Video)

cron