logo
Международный русскоязычный
торрент-трекер
Menu
"Бунт на корабле", за скачанные торрент-файлы дублоны не снимаются. Возможность оплачена пользователем Bulfrogg.
Doublon
Поделиться с друзьями: 
Голосуй за Корсар и получи 500 дублонов
Рейтинг торрент трекеров - UpTracker.ru

Полуночный ковбой / Midnight Cowboy (1969, драма, BDRemux 1080р) | Remastered

Сообщение kisa1980 » 09 окт 2019, 21:18

Название: Полуночный ковбой
Оригинальное название: Midnight Cowboy
Год выхода: 1969
Жанр: Драма
Режиссер: Джон Шлезингер
В ролях: Дастин Хоффман, Джон Войт, Сильвия Майлз, Джон МакГайвер, Бренда Ваккаро, Барнард Хьюз, Рут Уайт, Дженнифер Солт, Джонатан Крамер, Вива, Гастоне Россилли, Гилмен Рэнкин, Гэри Оуэнс, Джордж Эпперсен, Джорганн Джонсон, Энтони Холланд, Боб Бэлабан, Линда Дэвис, Арлин Ридер

Описание: Джо Бак, жизнерадостный и наивный парень из крохотного техасского городка, направляется в Нью-Йорк, чтобы использовать свои незаурядные сексуальные способности для удовлетворения потребностей богатых женщин за плату. Но дела у него идут не слишком хорошо, и вскоре уличный бомж-туберкулезник Риццо убеждает Джо, что ему необходим менеджер. Хотя Джо не в восторге от того, что ему приходится обслужить в сортире гомосексуалистов, он и Риццо становятся настоящими друзьями. Они хотят заработать много денег и уехать во Флориду.



Страна: США
Продолжительность: 01:53:18
Перевод 1: Профессиональный (многоголосый закадровый) DVD Магия
Перевод 2: Профессиональный (многоголосый закадровый) SomeWax
Перевод 3: Профессиональный (двухголосый закадровый) НТВ+
Перевод 4: Авторский (одноголосый закадровый) Леонид Володарский
Перевод 5: Любительский (одноголосый закадровый) Алексей Багичев

Качество: BDRemux 1080р
Видео: MPEG-4 AVC, 1920x1080 (1.85:1), 23.976 fps, 28093 kbps
Аудио 1: Русский AC3 5.1, 48 kHz, 384 kbps — DVD Магия
Аудио 2: Русский AC3 2.0, 48 kHz, 192 kbps — SomeWax
Аудио 3: Русский AC3 2.0, 48 kHz, 192 kbps — НТВ+
Аудио 4: Русский AC3 2.0, 48 kHz, 192 kbps — Леонид Володарский
Аудио 5: Русский DTS 5.1, 48 kHz, 1509 kbps — Алексей Багичев
Аудио 6: Английский DTS-HD MA 5.1, 48 kHz, 3409 kbps, 24-bit (DTS Core: 5.1, 48 kHz, 1509 kbps, 24-bit)
Аудио 7: Английский FLAC 1.0, 48 kHz, 683 kbps, 24-bit
Аудио 8: Английский AC3 1.0, 48 kHz, 192 kbps — Commentary
Субтитры: Русские, английские (полные, для слабослышащих)

General
Unique ID : 262555996474289344039402326309406364436 (0xC5867210CC713BEF5FD8465E8C31D314)
Complete name : Midnight.Cowboy.1969.1080p.BDRemux.mkv
Format : Matroska
Format version : Version 2
File size : 27.5 GiB
Duration : 1 h 53 min
Overall bit rate mode : Variable
Overall bit rate : 34.7 Mb/s
Movie name : Midnight Cowboy / Полуночный ковбой (1969)
Encoded date : UTC 2019-01-12 23:39:06
Writing application : mkvmerge v30.1.0 ('Forever And More') 64-bit
Writing library : libebml v1.3.6 + libmatroska v1.4.9
Cover : Yes
Attachments : cover.jpg

Video
ID : 1
Format : AVC
Format/Info : Advanced Video Codec
Format profile : High@L4.1
Format settings : CABAC / 4 Ref Frames
Format settings, CABAC : Yes
Format settings, RefFrames : 4 frames
Codec ID : V_MPEG4/ISO/AVC
Duration : 1 h 53 min
Bit rate mode : Variable
Bit rate : 27.9 Mb/s
Maximum bit rate : 37.0 Mb/s
Width : 1 920 pixels
Height : 1 080 pixels
Display aspect ratio : 16:9
Frame rate mode : Constant
Frame rate : 23.976 (24000/1001) FPS
Color space : YUV
Chroma subsampling : 4:2:0
Bit depth : 8 bits
Scan type : Progressive
Bits/(Pixel*Frame) : 0.562
Stream size : 22.1 GiB (81%)
Language : English
Default : Yes
Forced : No

Audio #1
ID : 2
Format : AC-3
Format/Info : Audio Coding 3
Codec ID : A_AC3
Duration : 1 h 53 min
Bit rate mode : Constant
Bit rate : 384 kb/s
Channel(s) : 6 channels
Channel positions : Front: L C R, Side: L R, LFE
Sampling rate : 48.0 kHz
Frame rate : 31.250 FPS (1536 SPF)
Bit depth : 16 bits
Compression mode : Lossy
Stream size : 311 MiB (1%)
Title : MVO – DVD Магия
Language : Russian
Service kind : Complete Main
Default : Yes
Forced : No

Audio #2
ID : 3
Format : AC-3
Format/Info : Audio Coding 3
Codec ID : A_AC3
Duration : 1 h 53 min
Bit rate mode : Constant
Bit rate : 192 kb/s
Channel(s) : 2 channels
Channel positions : Front: L R
Sampling rate : 48.0 kHz
Frame rate : 31.250 FPS (1536 SPF)
Bit depth : 16 bits
Compression mode : Lossy
Stream size : 156 MiB (1%)
Title : MVO – SomeWax
Language : Russian
Service kind : Complete Main
Default : No
Forced : No

Audio #3
ID : 4
Format : AC-3
Format/Info : Audio Coding 3
Codec ID : A_AC3
Duration : 1 h 53 min
Bit rate mode : Constant
Bit rate : 192 kb/s
Channel(s) : 2 channels
Channel positions : Front: L R
Sampling rate : 48.0 kHz
Frame rate : 31.250 FPS (1536 SPF)
Bit depth : 16 bits
Compression mode : Lossy
Stream size : 156 MiB (1%)
Title : DVO – НТВ+
Language : Russian
Service kind : Complete Main
Default : No
Forced : No

Audio #4
ID : 5
Format : AC-3
Format/Info : Audio Coding 3
Codec ID : A_AC3
Duration : 1 h 53 min
Bit rate mode : Constant
Bit rate : 192 kb/s
Channel(s) : 2 channels
Channel positions : Front: L R
Sampling rate : 48.0 kHz
Frame rate : 31.250 FPS (1536 SPF)
Bit depth : 16 bits
Compression mode : Lossy
Stream size : 156 MiB (1%)
Title : AVO – Леонид Володарский
Language : Russian
Service kind : Complete Main
Default : No
Forced : No

Audio #5
ID : 6
Format : DTS
Format/Info : Digital Theater Systems
Codec ID : A_DTS
Duration : 1 h 53 min
Bit rate mode : Constant
Bit rate : 1 510 kb/s
Channel(s) : 6 channels
Channel positions : Front: L C R, Side: L R, LFE
Sampling rate : 48.0 kHz
Frame rate : 93.750 FPS (512 SPF)
Bit depth : 24 bits
Compression mode : Lossy
Stream size : 1.19 GiB (4%)
Title : VO – Алексей Багичев
Language : Russian
Default : No
Forced : No

Audio #6
ID : 7
Format : DTS
Format/Info : Digital Theater Systems
Format profile : MA / Core
Codec ID : A_DTS
Duration : 1 h 53 min
Bit rate mode : Variable / Constant
Bit rate : 3 409 kb/s / 1 509 kb/s
Channel(s) : 6 channels
Channel positions : Front: L C R, Side: L R, LFE
Sampling rate : 48.0 kHz
Frame rate : 93.750 FPS (512 SPF)
Bit depth : 24 bits
Compression mode : Lossless / Lossy
Stream size : 2.70 GiB (10%)
Title : Original 5.1
Language : English
Default : No
Forced : No

Audio #7
ID : 8
Format : FLAC
Format/Info : Free Lossless Audio Codec
Codec ID : A_FLAC
Duration : 1 h 53 min
Bit rate mode : Variable
Bit rate : 683 kb/s
Channel(s) : 1 channel
Channel positions : Front: C
Sampling rate : 48.0 kHz
Frame rate : 11.719 FPS (4096 SPF)
Bit depth : 24 bits
Stream size : 553 MiB (2%)
Title : Original Mono
Writing library : libFLAC 1.3.2 (UTC 2017-01-01)
Language : English
Default : No
Forced : No

Audio #8
ID : 9
Format : AC-3
Format/Info : Audio Coding 3
Codec ID : A_AC3
Duration : 1 h 53 min
Bit rate mode : Constant
Bit rate : 192 kb/s
Channel(s) : 1 channel
Channel positions : Front: C
Sampling rate : 48.0 kHz
Frame rate : 31.250 FPS (1536 SPF)
Bit depth : 16 bits
Compression mode : Lossy
Stream size : 156 MiB (1%)
Title : Commentary by director John Schlesinger and producer Jerome Hellman
Language : English
Service kind : Complete Main
Default : No
Forced : No

Text #1
ID : 10
Format : UTF-8
Codec ID : S_TEXT/UTF8
Codec ID/Info : UTF-8 Plain Text
Duration : 1 h 49 min
Bit rate : 64 b/s
Count of elements : 990
Stream size : 51.7 KiB (0%)
Language : Russian
Default : No
Forced : No

Text #2
ID : 11
Format : UTF-8
Codec ID : S_TEXT/UTF8
Codec ID/Info : UTF-8 Plain Text
Duration : 1 h 49 min
Bit rate : 68 b/s
Count of elements : 1457
Stream size : 55.2 KiB (0%)
Language : English
Default : No
Forced : No

Text #3
ID : 12
Format : UTF-8
Codec ID : S_TEXT/UTF8
Codec ID/Info : UTF-8 Plain Text
Duration : 1 h 50 min
Bit rate : 74 b/s
Count of elements : 1596
Stream size : 59.8 KiB (0%)
Title : SDH
Language : English
Default : No
Forced : No

Menu
00:00:00.000 : en:01. Joe Buck
00:05:16.608 : en:02. Places to go
00:13:59.672 : en:03. Urban cowboy
00:24:59.957 : en:04. Ratso Rizzo
00:31:08.575 : en:05. Lonesome
00:38:38.358 : en:06. Street life
00:45:04.911 : en:07. "Rico, Rico"
00:55:10.974 : en:08. "Sunshine and coconut milk"
01:07:41.474 : en:09. "Spiritual matters"
01:18:29.997 : en:10. "Wackos"
01:29:02.212 : en:11. Joe scores
01:38:13.846 : en:12. Going south
01:45:06.258 : en:13. Florida
КУБКИ

СТАЖ

МЕДАЛИ
Награды:106

За активную помощь проекту (10) Лучший по количеству кубков (3) За отличные раздачи и качество (36) За подробное оформление раздач (6) За отличные комментарии (9) Почётный форумчанин (11) Верный Сид (27) За участие в конкурсах/играх (2)

Аватара пользователя
Тортуга
kisa1980
Главный помощник Администратора-Корсар
  • Торрент
Для скачивания торрента необходимо зарегистрироваться или войти на трекер.

Вернуться в Классика зарубежного кино (фильмы до 1980 года / HD Video)



Uptime по данным Ping-Admin.Ru - сервиса мониторинга доступности сайтов
Рейтинг@Mail.ru