logo
Международный русскоязычный
торрент-трекер
Menu
Doublon
Поделиться с друзьями: 
Голосуй за Корсар и получи 400 дублонов
Рейтинг торрент трекеров - UpTracker.ru

Подставное тело / Body Double (1984, Триллер, драма, криминал, BDRip 720p) - KORSAR

Сообщение MZMA » 25 дек 2018, 04:50

Название: Подставное тело
Оригинальное название: Body Double
Год выпуска: 1984
Выпущено: США, Columbia Pictures Corporation, Delphi II
Жанр: Триллер, драма, криминал, детектив
Режиссер: Брайан Де Пальма
В ролях: Крейг Уоссон, Мелани Гриффит, Грегг Генри, Дебора Шелтон, Гай Бойд, Дэннис Франц, Дэвид Хэскелл, Ребекка Стэнли, Эл Израэл, Дуглас Уорхит

О фильме: Актер Джейк снимается на вторых ролях в фильмах ужасов про вампиров. Однажды он возвращается домой после съемок фильма и обнаруживает свою подружку с другим мужчиной. Джейк вынужден искать себе новое жилье. Его знакомый Фрэнк, тоже актер, предлагает Джейку пожить у него, пока он будет в отъезде, а заодно и присмотреть за домом. Чтобы Джейк не скучал в одиночестве, Фрэнк рассказывает ему о маленьком «домашнем» развлечении. В здании напротив живет «любимая» соседка Фрэнка, сексапильная красавица Глория, которая каждый вечер раздевается у незанавешенного и хорошо освещенного окна. Увидев бесплатный стриптиз своими глазами, Джейк мечтает познакомиться лично с прекрасной Глорией. Знакомство происходит при необычных обстоятельствах, но в один из вечеров Джейк вместо полюбившегося шоу видит через окно, как Глорию убивают… Но это еще не все. Кто-то нанимает актрису, чтобы она заменила Глорию и продолжила импровизированное шоу «за стеклом»...



Продолжительность: 01:54:11
Перевод: Профессиональный многоголосый, профессиональный двухголосый, авторский
Субтитры: Русские, английские
Навигация по главам: Есть

Качество: BDRip 720p
Видео: MPEG-4 AVC, 10401 Кбит/сек, 1274x690, 23,976 кадра/сек
Аудио #1: AC3, 6 ch, 448 Кбит/сек | Русский, профессиональный (многоголосый закадровый) Кармен Видео
Аудио #2: AC3, 2 ch, 192 Кбит/сек | Русский, профессиональный (многоголосый закадровый) CTC
Аудио #3: AC3, 2 ch, 192 Кбит/сек | Русский, профессиональный (двухголосый закадровый) OPT
Аудио #4: AC3, 6 ch, 384 Кбит/сек | Русский, авторский (одноголосый закадровый) Григорий Либергал
Аудио #5: AC3, 6 ch, 384 Кбит/сек | Русский, авторский (одноголосый закадровый) Сергей Визгунов
Аудио #6: AC3, 1 ch, 192 Кбит/сек | Русский, авторский (одноголосый закадровый) Алексей Михалёв
Аудио #7: AC3, 1 ch, 192 Кбит/сек | Русский, авторский (одноголосый закадровый) Леонид Володарский
Аудио #8: AC3, 2 ch, 192 Кбит/сек | Украинский, профессиональный (двухголосый закадровый) K1
Аудио #9: AC3, 6 ch, 448 Кбит/сек | Английский, оригинал

Релиз от:


x264 [info]: frame I:924 Avg QP:18.46 size:152853
x264 [info]: frame P:30628 Avg QP:20.22 size: 91789
x264 [info]: frame B:132716 Avg QP:22.41 size: 44839
-----------------------------------------------------
Общее
Уникальный идентификатор : 233667608014856616907323989790970219142 (0xAFCABE8C7889DAFCBB25C07E59EE0A86)
Полное имя : Подставное.тело.1984.BDRip.720p.KORSAR.mkv
Формат : Matroska
Версия формата : Version 2
Размер файла : 10,4 Гбайт
Продолжительность : 1 ч. 54 м.
Общий поток : 13,0 Мбит/сек
Дата кодирования : UTC 2018-12-25 00:52:36
Программа кодирования : mkvmerge v5.8.0 ('No Sleep / Pillow') built on Sep 2 2012 15:37:04
Библиотека кодирования : libebml v1.2.3 + libmatroska v1.3.0

Видео
Идентификатор : 1
Формат : AVC
Формат/Информация : Advanced Video Codec
Профиль формата : High@L4.1
Настройки формата : CABAC / 9 Ref Frames
Параметр CABAC формата : Да
Параметр RefFrames формата : 9 кадров
Идентификатор кодека : V_MPEG4/ISO/AVC
Продолжительность : 1 ч. 54 м.
Битрейт : 10,4 Мбит/сек
Ширина : 1274 пикселя
Высота : 690 пикселей
Соотношение сторон : 1,85:1
Режим частоты кадров : Постоянный
Частота кадров : 23,976 (24000/1001) кадра/сек
Цветовое пространство : YUV
Субдискретизация насыщенности : 4:2:0
Битовая глубина : 8 бит
Тип развёртки : Прогрессивная
Бит/(Пиксели*Кадры) : 0.493
Размер потока : 8,09 Гбайт (78%)
Заголовок : RIP | MZMA
Библиотека кодирования : x264 core 152 r2851kMod ba24899
Настройки программы : cabac=1 / ref=9 / deblock=1:-2:-2 / analyse=0x3:0x113 / me=umh / subme=11 / psy=1 / fade_compensate=0.00 / psy_rd=1.00:0.00 / mixed_ref=1 / me_range=48 / chroma_me=1 / trellis=2 / 8x8dct=1 / cqm=0 / deadzone=21,11 / fast_pskip=0 / chroma_qp_offset=-2 / threads=6 / lookahead_threads=1 / sliced_threads=0 / nr=0 / decimate=0 / interlaced=0 / bluray_compat=0 / constrained_intra=0 / bframes=16 / b_pyramid=2 / b_adapt=2 / b_bias=0 / direct=3 / weightb=1 / open_gop=0 / weightp=2 / keyint=240 / keyint_min=23 / scenecut=40 / intra_refresh=0 / rc_lookahead=40 / rc=2pass / mbtree=0 / bitrate=10401 / ratetol=1.0 / qcomp=0.60 / qpmin=0 / qpmax=69 / qpstep=4 / cplxblur=20.0 / qblur=0.5 / vbv_maxrate=50000 / vbv_bufsize=62500 / nal_hrd=none / filler=0 / ip_ratio=1.25 / pb_ratio=1.30 / aq=1:0.70
Язык : English
По умолчанию : Да
Принудительно : Нет
Цветовой диапазон : Limited
Основные цвета : BT.709
Характеристики трансфера : BT.709
Коэффициенты матрицы : BT.709

Аудио #1
Идентификатор : 2
Формат : AC-3
Формат/Информация : Audio Coding 3
Идентификатор кодека : A_AC3
Продолжительность : 1 ч. 54 м.
Вид битрейта : Постоянный
Битрейт : 448 Кбит/сек
Каналы : 6 каналов
Расположение каналов : Front: L C R, Side: L R, LFE
Частота : 48,0 КГц
Частота кадров : 31,250 кадров/сек (1536 SPF)
Битовая глубина : 16 бит
Метод сжатия : С потерями
Размер потока : 366 Мбайт (3%)
Заголовок : MVO | Кармен Видео
Язык : Russian
По умолчанию : Да
Принудительно : Нет

Аудио #2
Идентификатор : 3
Формат : AC-3
Формат/Информация : Audio Coding 3
Идентификатор кодека : A_AC3
Продолжительность : 1 ч. 54 м.
Вид битрейта : Постоянный
Битрейт : 192 Кбит/сек
Каналы : 2 канала
Расположение каналов : Front: L R
Частота : 48,0 КГц
Частота кадров : 31,250 кадров/сек (1536 SPF)
Битовая глубина : 16 бит
Метод сжатия : С потерями
Размер потока : 157 Мбайт (1%)
Заголовок : MVO | CTC
Язык : Russian
По умолчанию : Нет
Принудительно : Нет

Аудио #3
Идентификатор : 4
Формат : AC-3
Формат/Информация : Audio Coding 3
Идентификатор кодека : A_AC3
Продолжительность : 1 ч. 54 м.
Вид битрейта : Постоянный
Битрейт : 192 Кбит/сек
Каналы : 2 канала
Расположение каналов : Front: L R
Частота : 48,0 КГц
Частота кадров : 31,250 кадров/сек (1536 SPF)
Битовая глубина : 16 бит
Метод сжатия : С потерями
Размер потока : 157 Мбайт (1%)
Заголовок : DVO | OPT
Язык : Russian
По умолчанию : Нет
Принудительно : Нет

Аудио #4
Идентификатор : 5
Формат : AC-3
Формат/Информация : Audio Coding 3
Идентификатор кодека : A_AC3
Продолжительность : 1 ч. 54 м.
Вид битрейта : Постоянный
Битрейт : 384 Кбит/сек
Каналы : 6 каналов
Расположение каналов : Front: L C R, Side: L R, LFE
Частота : 48,0 КГц
Частота кадров : 31,250 кадров/сек (1536 SPF)
Битовая глубина : 16 бит
Метод сжатия : С потерями
Размер потока : 314 Мбайт (3%)
Заголовок : AVO | Г. Либергал
Язык : Russian
По умолчанию : Нет
Принудительно : Нет

Аудио #5
Идентификатор : 6
Формат : AC-3
Формат/Информация : Audio Coding 3
Идентификатор кодека : A_AC3
Продолжительность : 1 ч. 54 м.
Вид битрейта : Постоянный
Битрейт : 384 Кбит/сек
Каналы : 6 каналов
Расположение каналов : Front: L C R, Side: L R, LFE
Частота : 48,0 КГц
Частота кадров : 31,250 кадров/сек (1536 SPF)
Битовая глубина : 16 бит
Метод сжатия : С потерями
Размер потока : 314 Мбайт (3%)
Заголовок : AVO | С. Визгунов
Язык : Russian
По умолчанию : Нет
Принудительно : Нет

Аудио #6
Идентификатор : 7
Формат : AC-3
Формат/Информация : Audio Coding 3
Идентификатор кодека : A_AC3
Продолжительность : 1 ч. 54 м.
Вид битрейта : Постоянный
Битрейт : 192 Кбит/сек
Каналы : 1 канал
Расположение каналов : Front: C
Частота : 48,0 КГц
Частота кадров : 31,250 кадров/сек (1536 SPF)
Битовая глубина : 16 бит
Метод сжатия : С потерями
Размер потока : 157 Мбайт (1%)
Заголовок : AVO | А. Михалёв
Язык : Russian
По умолчанию : Нет
Принудительно : Нет

Аудио #7
Идентификатор : 8
Формат : AC-3
Формат/Информация : Audio Coding 3
Идентификатор кодека : A_AC3
Продолжительность : 1 ч. 54 м.
Вид битрейта : Постоянный
Битрейт : 192 Кбит/сек
Каналы : 1 канал
Расположение каналов : Front: C
Частота : 48,0 КГц
Частота кадров : 31,250 кадров/сек (1536 SPF)
Битовая глубина : 16 бит
Метод сжатия : С потерями
Размер потока : 157 Мбайт (1%)
Заголовок : AVO | Л. Володарский
Язык : Russian
По умолчанию : Нет
Принудительно : Нет

Аудио #8
Идентификатор : 9
Формат : AC-3
Формат/Информация : Audio Coding 3
Идентификатор кодека : A_AC3
Продолжительность : 1 ч. 54 м.
Вид битрейта : Постоянный
Битрейт : 192 Кбит/сек
Каналы : 2 канала
Расположение каналов : Front: L R
Частота : 48,0 КГц
Частота кадров : 31,250 кадров/сек (1536 SPF)
Битовая глубина : 16 бит
Метод сжатия : С потерями
Размер потока : 157 Мбайт (1%)
Заголовок : DVO | K1
Язык : Ukrainian
По умолчанию : Нет
Принудительно : Нет

Аудио #9
Идентификатор : 10
Формат : AC-3
Формат/Информация : Audio Coding 3
Идентификатор кодека : A_AC3
Продолжительность : 1 ч. 54 м.
Вид битрейта : Постоянный
Битрейт : 448 Кбит/сек
Каналы : 6 каналов
Расположение каналов : Front: L C R, Side: L R, LFE
Частота : 48,0 КГц
Частота кадров : 31,250 кадров/сек (1536 SPF)
Битовая глубина : 16 бит
Метод сжатия : С потерями
Размер потока : 366 Мбайт (3%)
Заголовок : Original
Язык : English
По умолчанию : Нет
Принудительно : Нет

Текст #1
Идентификатор : 11
Формат : UTF-8
Идентификатор кодека : S_TEXT/UTF8
Идентификатор кодека/Информация : UTF-8 Plain Text
Язык : Russian
По умолчанию : Нет
Принудительно : Нет

Текст #2
Идентификатор : 12
Формат : UTF-8
Идентификатор кодека : S_TEXT/UTF8
Идентификатор кодека/Информация : UTF-8 Plain Text
Язык : English
По умолчанию : Нет
Принудительно : Нет

Текст #3
Идентификатор : 13
Формат : UTF-8
Идентификатор кодека : S_TEXT/UTF8
Идентификатор кодека/Информация : UTF-8 Plain Text
Заголовок : SDH
Язык : English
По умолчанию : Нет
Принудительно : Нет

Меню
00:00:00.000 : en:01. Start
00:04:39.776 : en:02. Surprised Spouses
00:09:24.677 : en:03. Looking for a Job
00:10:32.810 : en:04. Acting Class
00:14:42.077 : en:05. Ready for Good News
00:17:51.544 : en:06. New House-Sitter
00:19:56.744 : en:07. Sam's Favorite Neighbor
00:24:13.695 : en:08. She Who Gets Slapped
00:28:20.979 : en:09. "Just Like Clockwork"
00:30:15.880 : en:10. Following Gloria
00:35:48.980 : en:11. Dressing Room Voyeur
00:39:10.147 : en:12. In the Elevator
00:42:19.348 : en:13. On the Beach
00:47:27.348 : en:14. Purse Snatcher
00:54:42.382 : en:15. Practice Calls
00:56:24.566 : en:16. Sam Checks In
00:57:39.650 : en:17. Spotting a Thief
00:58:34.117 : en:18. Attacked
01:05:04.851 : en:19. Detectice McClean
01:10:48.252 : en:20. Holly Does Hollywood
01:14:57.186 : en:21. Tracking Holly's Body
01:16:34.886 : en:22. "Relax"
01:21:57.020 : en:23. Getting Acquainted
01:24:56.354 : en:24. A Tip for Kimberly
01:26:31.954 : en:25. Straight Up
01:36:23.655 : en:26. Holly Hitches a Ride
01:38:23.955 : en:27. In the Reservoir
01:45:00.189 : en:28. "Jake..action."

КУБКИ

СТАЖ

МЕДАЛИ
Награды:90

За помощь проекту (3) Лучший по количеству кубков (6) За отличные раздачи и качество (49) За подробное оформление раздач (11) За отличные комментарии (1) Почётный форумчанин (1) Верный Сид (16) C наступающим Новым Годом!!! (1)

Аватара пользователя
СССР
MZMA
Главный Модератор-Корсар
Раздачи группы KORSAR разрешено перезаливать спустя сутки после публикации
  • Торрент
Для скачивания торрента необходимо зарегистрироваться или войти на трекер.

Сообщение kwazar312 » 25 дек 2018, 12:20

Знаете ли вы, что...
===========================
Первоначально Брайан Де Пальма планировал, что это будет первый голливудский фильм с эпизодами реального, а не имитированного секса. Студия эту идею не поддержала.
Первоначально на роль Холли Боди была утверждена порнозвезда Аннетт Хейвен. Однако после того как боссы студии Columbia Pictures увидели, в какого рода фильмах она снимается, они решили заменить ее на Мелани Гриффит.
Роман Брета Истона Эллиса «Американский психопат» содержит ряд реминисценций и прямых упоминаний картины «Подставное тело» (1984), так как это любимый фильм главного героя книги Патрика Бейтмана.
Когда кинопродюсер спрашивает Джейка Скалли, в каких фильмах он снимался, тот отвечает: «Я снимался в «Семейке Хартов», это было неплохо». Крейг Уоссон, который играет Джейка Скалли, действительно снимался в одноименном сериале в пилотном эпизоде.
В квартире будущей экс-подруги можно заметить висящий на стене постер классического фильма Виктора Флеминга «Волшебник страны Оз» (1939) с изображением Железного Дровосека.
Эпизоды погонь на высоте поставлены как реминисценция к комедийному триллеру Колина Хиггинса «Грязная игра» (1978).
Уважаемый MZMA,большое спасибо за раздачу данного фильма.
КУБКИ

СТАЖ

МЕДАЛИ
Награды:81

За помощь проекту (8) Лучший по количеству кубков (21) За отличные комментарии (16) Верный Сид (29) За участие в конкурсах/играх (6) C наступающим Новым Годом!!! (1)

Аватара пользователя
kwazar312
Заслуженный Корсар-Вип

Сообщение filmprestige » 10 янв 2019, 02:38

В первой дорожке (Кармен Видео) присутствует рассинхрон
СТАЖ

МЕДАЛИ
Награды:1

C наступающим Новым Годом!!! (1)

Аватара пользователя
filmprestige
Опытный Корсар

Сообщение MZMA » 10 янв 2019, 14:13

Внимание! - раздача обновлена - устранён незначительный рассинхрон на запаздывание, во всех дорожках, кроме оригинальной.
Приношу извинения за неудобства, просьба перекачать раздачу.
КУБКИ

СТАЖ

МЕДАЛИ
Награды:90

За помощь проекту (3) Лучший по количеству кубков (6) За отличные раздачи и качество (49) За подробное оформление раздач (11) За отличные комментарии (1) Почётный форумчанин (1) Верный Сид (16) C наступающим Новым Годом!!! (1)

Аватара пользователя
СССР
MZMA
Главный Модератор-Корсар

Сообщение filmprestige » 10 янв 2019, 14:32

Спасибо, перекачиваю.
СТАЖ

МЕДАЛИ
Награды:1

C наступающим Новым Годом!!! (1)

Аватара пользователя
filmprestige
Опытный Корсар

Сообщение ffgghh » 11 янв 2019, 17:00

Подобного идиотизма я никогда не видел! Даже Брайан Де Пальма снимал дерьмо... Выдержал 40 минут... Бред Брайана Де Пальмы (или Сивой Кобылы...)???
СТАЖ

МЕДАЛИ
Награды:3

Верный Сид (2) C наступающим Новым Годом!!! (1)

Аватара пользователя
ffgghh
Опытный Корсар


Вернуться в Зарубежное кино (1981-1990 / HD Video)



Uptime по данным Ping-Admin.Ru - сервиса мониторинга доступности сайтов
Рейтинг@Mail.ru Голосуйте за наш сайт в каталоге Rubo.Ru