logo
Международный русскоязычный
торрент-трекер
Menu
Поделиться с друзьями: 
Голосуй за Корсар и получай 1000 дублонов каждый день
Рейтинг торрент трекеров - UpTracker.ru

Почаев (2006, Документально-постановочный, исторический, DVDRip-AVC) - KORSAR

Сообщение Sanechek » 19 дек 2016, 23:16

Название: Почаев
Год выхода: 2006
Жанр: Документально-постановочный, исторический
Режиссер: Василий Киба, Татьяна Яцына
В ролях: Отец Геронтий, Пётр Панчук, Анна Афанасьева, Сергей Радченко, Василий Киба, Мария Смех, Александр Безсмертный, Анатолий Чумаченко, Алексей Левинец, Светлана Орличенко, Юрий Потапенко, Вадим Гаркуценко, Артур Ли, Игорь Портянко, Евгений Майстренко, Александр Прихожанин, Василий Кухарский, Олег Примагенов, Лиля Ребрик, Юрий Высоцкий, Алена Узлюк, Анна Карашенко

О фильме: "Почаев" - это фильм об истории Свято-Успенской Почаевской Лавры рассказанной человеком, который однажды посетив этот монастырь, почувствовал, что в нем самом произошли невероятные изменения, позволившие ему посмотреть на мир другими глазами. С тех пор при первой возможности он старается побывать там снова. И так, с нашим героем – «Путником» мы начинаем путешествие...

Выпущено: Украина, студия "Вариант-ТВ"
Продолжительность: 01:04:05
Перевод: не требуется

Файл
Кодек: х264
Качество: DVDRip-AVC
Видео: MPEG-4 AVC, 706x460@754x460, 25 fps, 2800 Кбит/с
Звук: AC3, 2 ch, 192 Кбит/с

Общее
Уникальный идентификатор : 184167161651270315638614939945356173889 (0x8A8D4E1DA2A23F59BD116FAD693F2241)
Полное имя : D:\Ф А Й Л Ы\Почаев (2006).mkv
Формат : Matroska
Версия формата : Version 2
Размер файла : 1,34 Гбайт
Продолжительность : 1 ч. 4 м.
Общий поток : 2990 Кбит/сек
Дата кодирования : UTC 2016-12-18 18:49:50
Программа кодирования : mkvmerge v7.8.0 ('River Man') 32bit built on Apr 3 2015 12:11:22
Библиотека кодирования : libebml v1.3.1 + libmatroska v1.4.2

Видео
Идентификатор : 1
Формат : AVC
Формат/Информация : Advanced Video Codec
Профиль формата : High@L4.1
Параметр CABAC формата : Да
Параметр ReFrames формата : 12 кадров
Идентификатор кодека : V_MPEG4/ISO/AVC
Продолжительность : 1 ч. 4 м.
Битрейт : 2800 Кбит/сек
Ширина : 706 пикселей
Высота : 460 пикселей
Соотношение сторон : 16:10
Режим частоты кадров : Постоянный
Частота кадров : 25,000 кадров/сек
Цветовое пространство : YUV
Субдискретизация насыщенности : 4:2:0
Битовая глубина : 8 бит
Тип развёртки : Прогрессивная
Бит/(Пиксели*Кадры) : 0.345
Размер потока : 1,23 Гбайт (92%)
Библиотека кодирования : x264 core 146 r2538 121396c
Настройки программы : cabac=1 / ref=12 / deblock=1:-2:-2 / analyse=0x3:0x133 / me=umh / subme=10 / psy=1 / psy_rd=1.05:0.10 / mixed_ref=1 / me_range=32 / chroma_me=1 / trellis=2 / 8x8dct=1 / cqm=0 / deadzone=21,11 / fast_pskip=0 / chroma_qp_offset=-3 / threads=3 / lookahead_threads=1 / sliced_threads=0 / nr=0 / decimate=0 / interlaced=0 / bluray_compat=0 / constrained_intra=0 / bframes=16 / b_pyramid=2 / b_adapt=2 / b_bias=0 / direct=3 / weightb=1 / open_gop=0 / weightp=2 / keyint=250 / keyint_min=25 / scenecut=40 / intra_refresh=0 / rc=2pass / mbtree=0 / bitrate=2800 / ratetol=1.0 / qcomp=0.63 / qpmin=0 / qpmax=69 / qpstep=4 / cplxblur=20.0 / qblur=0.5 / ip_ratio=1.25 / pb_ratio=1.30 / aq=1:1.00
Язык : Russian
Default : Да
Forced : Нет
Цветовой диапазон : Limited
Основные цвета : BT.601 PAL
Характеристики трансфера : BT.470 System B, BT.470 System G
Коэффициенты матрицы : BT.601

Аудио
Идентификатор : 2
Формат : AC-3
Формат/Информация : Audio Coding 3
Расширение режима : CM (complete main)
Параметр Endianness формата : Big
Идентификатор кодека : A_AC3
Продолжительность : 1 ч. 4 м.
Вид битрейта : Постоянный
Битрейт : 192 Кбит/сек
Каналы : 2 канала
Расположение каналов : Front: L R
Частота : 48,0 КГц
Частота кадров : 31,250 кадров/сек (1536 spf)
Битовая глубина : 16 бит
Метод сжатия : С потерями
Размер потока : 88,0 Мбайт (6%)
Язык : Russian
Default : Да
Forced : Нет
КУБКИ

СТАЖ

МЕДАЛИ
Награды:71

Пожизненный VIP+ (1) За активную помощь проекту VIP (4) Лучший по количеству кубков (9) За отличные раздачи и качество (24) За подробное оформление раздач (2) За отличные комментарии (7) Почётный форумчанин (1) Верный Сид (22)

Аватара пользователя
СССР
Sanechek
Главный Модератор-Корсар
Раздачи группы KORSAR доступны раздавшим не менее 15 гиг и зарегистрированным от 14 дней, а перезаливать разрешено спустя 14 дней после публикации и с обязательным добавлением банера!!!
  • Торрент
Для скачивания торрента необходимо зарегистрироваться или войти на трекер.

Сообщение Sanechek » 19 дек 2016, 23:18

В конце фильма попадается несколько кадров гребёнки, убрать которую нет возможности.
КУБКИ

СТАЖ

МЕДАЛИ
Награды:71

Пожизненный VIP+ (1) За активную помощь проекту VIP (4) Лучший по количеству кубков (9) За отличные раздачи и качество (24) За подробное оформление раздач (2) За отличные комментарии (7) Почётный форумчанин (1) Верный Сид (22)

Аватара пользователя
СССР
Sanechek
Главный Модератор-Корсар

Сообщение kwazar312 » 19 дек 2016, 23:25

Большое спасибо за прекрасный фильм.
КУБКИ

СТАЖ

МЕДАЛИ
Награды:149

Пожизненный VIP+ (4) За активную помощь проекту VIP (14) Лучший по количеству кубков (46) За отличные раздачи и качество (3) За отличные комментарии (26) Почётный форумчанин (1) Верный Сид (49) За участие в конкурсах/играх (6)

Аватара пользователя
kwazar312
Заслуженный Корсар-VIP+

Сообщение filbi1976 » 19 дек 2016, 23:25

Sanechek, спасибо! :hi:
The Show Must Go On
Посмотреть товар в профиле пользователя

Нажмите на изображение, чтобы увидеть в полный размер  
1 шт.
Нажмите на изображение, чтобы увидеть в полный размер  
1 шт.
Нажмите на изображение, чтобы увидеть в полный размер  
1 шт.
Нажмите на изображение, чтобы увидеть в полный размер  
1 шт.
Нажмите на изображение, чтобы увидеть в полный размер  
1 шт.
Нажмите на изображение, чтобы увидеть в полный размер  
1 шт.
Нажмите на изображение, чтобы увидеть в полный размер  
1 шт.
Нажмите на изображение, чтобы увидеть в полный размер  
1 шт.
Нажмите на изображение, чтобы увидеть в полный размер  
1 шт.
Нажмите на изображение, чтобы увидеть в полный размер  
1 шт.
Нажмите на изображение, чтобы увидеть в полный размер  
1 шт.
Нажмите на изображение, чтобы увидеть в полный размер  
1 шт.
Нажмите на изображение, чтобы увидеть в полный размер  
1 шт.
Нажмите на изображение, чтобы увидеть в полный размер  
1 шт.
Нажмите на изображение, чтобы увидеть в полный размер  
1 шт.
КУБКИ

СТАЖ

МЕДАЛИ
Награды:175

За активную помощь проекту VIP (5) Лучший по количеству кубков (1) За отличные раздачи и качество (115) За подробное оформление раздач (4) За отличные комментарии (8) Почётный форумчанин (3) Верный Сид (35) За участие в конкурсах/играх (2) 3 место в конкурсах/играх (1)

Аватара пользователя
Тортуга
filbi1976
Администратор-Корсар


Вернуться в Христианство



Рейтинг@Mail.ru