logo
Международный русскоязычный
торрент-трекер
Menu
Doublon
Поделиться с друзьями: 
Голосуй за Корсар и получи 500 дублонов
Рейтинг торрент трекеров - UpTracker.ru

Побег из Лос-Анджелеса / Escape from L.A. (1996, фантастика, боевик, триллер, приключения, BDRemux 1080p)

Сообщение kisa1980 » 10 июл 2019, 18:04

Название: Побег из Лос-Анджелеса
Оригинальное название: Escape from L.A.
Год выхода: 1996
Жанр: Фантастика, боевик, триллер, приключения
Режиссер: Джон Карпентер /John Carpenter/
В ролях: Курт Рассел /Kurt Russell/, А.Дж. Ленджер /A.J. Langer/, Стив Бушеми /Steve Buscemi/, Жорж Коррафас /Georges Corraface/, Стейси Кич /Stacy Keach/, Мишель Форбс /Michelle Forbes/, Пэм Гриер /Pam Grier/, Джефф Имада /Jeff Imada/, Клифф Робертсон /Cliff Robertson/, Валерия Голино /Valeria Golino/...

О фильме: США 2013 года, жестокая тоталитарная диктатура. В результате природных катаклизмов Лос-Анджелес превратился в остров, куда высылаются все неугодные правительству элементы. Совершивший в свое время невозможный «Побег из Нью-Йорка» Змей Плисскен снова понадобился властям для выполнения задачи, с которой кроме него никому не совладать, — необходимо вернуть дочь президента, укравшую образец секретного оружия массового поражения. Завершить миссию Змей обязан за 10 часов, в противном случае смертельный вирус, введенный в его кровь, начнет действовать. Вооруженный до зубов и готовый на все, Плисскен отправляется в Лос-Анджелес.



Страна: США
Продолжительность: 01:40:42
Перевод 1: Профессиональный (многоголосый закадровый) Киномания
Перевод 2: Профессиональный (многоголосый закадровый) Премьер Видео Фильм
Перевод 3: Профессиональный (многоголосый закадровый) СТС
Перевод 4: Авторский (одноголосый закадровый) Живов
Перевод 5: Авторский (одноголосый закадровый) Визгунов
Перевод 6: Авторский (одноголосый закадровый) Кашкин (Первомайский)

Качество: BDRemux 1080p
Видео: AVC, 1920x1080 [16:9], 23.976 fps, ~31500 kbps
Аудио 1: AC3 5.1, 48 kHz, 16 bit, 448 kbps - MVO "Киномания"
Аудио 2: AC3 5.1, 48 kHz, 16 bit, 448 kbps - MVO "Премьер Видео Фильм"
Аудио 3: AC3 2.0, 48 kHz, 16 bit, 256 kbps - MVO СТС / Че
Аудио 4: DTS-HD MA 5.1, 48 kHz, 4348 kbps, 24 bit (Core: 5.1 / 48 kHz / 1509 kbps / 24-bit) - Юрий Живов
Аудио 5: AC3 5.1, 48 kHz, 16 bit, 384 kbps - Сергей Визгунов
Аудио 6: AC3 5.1, 48 kHz, 16 bit, 384 kbps - Александр Кашкин (Первомайский)
Аудио 7: True HD 5.1, 48 kHz, 3973 kbps, 24 bit - english
Аудио 8: AC3 5.1, 48 kHz, 16 bit, 640 kbps - english
Субтитры: Русские, английские

Общее
Уникальный идентификатор : 19563240402709673589019401387634927863 (0xEB7BE3887BB87117C191C892AD528F7)
Полное имя : F:Escape from LA [1996 BDRemux].mkv
Формат : Matroska
Версия формата : Version 4
Размер файла : 29,9 Гбайт
Продолжительность : 1 ч. 40 м.
Режим общего битрейта : Переменный
Общий поток : 42,5 Мбит/сек
Дата кодирования : UTC 2019-05-26 15:27:02
Программа кодирования : mkvmerge v19.0.0 ('Brave Captain') 32-bit
Библиотека кодирования : libebml v1.3.5 + libmatroska v1.4.8

Видео
Идентификатор : 1
Формат : AVC
Формат/Информация : Advanced Video Codec
Профиль формата : High@L4.1
Настройки формата : CABAC / 2 Ref Frames
Параметр CABAC формата : Да
Параметр RefFrames формата : 2 кадра
Идентификатор кодека : V_MPEG4/ISO/AVC
Продолжительность : 1 ч. 40 м.
Вид битрейта : Переменный
Битрейт : 31,5 Мбит/сек
Ширина : 1920 пикселей
Высота : 1080 пикселей
Соотношение сторон : 16:9
Режим частоты кадров : Постоянный
Частота кадров : 23,976 (24000/1001) кадра/сек
Цветовое пространство : YUV
Субдискретизация насыщенности : 4:2:0
Битовая глубина : 8 бит
Тип развёртки : Прогрессивная
Бит/(Пиксели*Кадры) : 0.634
Размер потока : 22,2 Гбайт (74%)
Default : Да
Forced : Нет

Аудио #1
Идентификатор : 2
Формат : AC-3
Формат/Информация : Audio Coding 3
Коммерческое название : Dolby Digital
Идентификатор кодека : A_AC3
Продолжительность : 1 ч. 40 м.
Вид битрейта : Постоянный
Битрейт : 448 Кбит/сек
Каналы : 6 каналов
ChannelLayout : L R C LFE Ls Rs
Частота : 48,0 КГц
Частота кадров : 31,250 кадров/сек (1536 SPF)
Битовая глубина : 16 бит
Метод сжатия : С потерями
Размер потока : 323 Мбайт (1%)
Заголовок : Kinomania
Язык : Russian
ServiceKind : Complete Main
Default : Да
Forced : Нет

Аудио #2
Идентификатор : 3
Формат : AC-3
Формат/Информация : Audio Coding 3
Коммерческое название : Dolby Digital
Идентификатор кодека : A_AC3
Продолжительность : 1 ч. 40 м.
Вид битрейта : Постоянный
Битрейт : 448 Кбит/сек
Каналы : 6 каналов
ChannelLayout : L R C LFE Ls Rs
Частота : 48,0 КГц
Частота кадров : 31,250 кадров/сек (1536 SPF)
Битовая глубина : 16 бит
Метод сжатия : С потерями
Размер потока : 323 Мбайт (1%)
Заголовок : Premier
Язык : Russian
ServiceKind : Complete Main
Default : Нет
Forced : Нет

Аудио #3
Идентификатор : 4
Формат : AC-3
Формат/Информация : Audio Coding 3
Коммерческое название : Dolby Digital
Идентификатор кодека : A_AC3
Продолжительность : 1 ч. 40 м.
Вид битрейта : Постоянный
Битрейт : 256 Кбит/сек
Каналы : 2 канала
ChannelLayout : L R
Частота : 48,0 КГц
Частота кадров : 31,250 кадров/сек (1536 SPF)
Битовая глубина : 16 бит
Метод сжатия : С потерями
Размер потока : 184 Мбайт (1%)
Заголовок : STS
Язык : Russian
ServiceKind : Complete Main
Default : Нет
Forced : Нет

Аудио #4
Идентификатор : 5
Формат : DTS XLL
Формат/Информация : Digital Theater Systems
Коммерческое название : DTS-HD Master Audio
Идентификатор кодека : A_DTS
Продолжительность : 1 ч. 40 м.
Вид битрейта : Переменный
Битрейт : 4348 Кбит/сек
Каналы : 6 каналов
ChannelLayout : C L R Ls Rs LFE
Частота : 48,0 КГц
Частота кадров : 93,750 кадра/сек (512 SPF)
Битовая глубина : 24 бит
Метод сжатия : Без потерь
Размер потока : 3,06 Гбайт (10%)
Заголовок : Zhivov
Язык : Russian
Default : Нет
Forced : Нет

Аудио #5
Идентификатор : 6
Формат : AC-3
Формат/Информация : Audio Coding 3
Коммерческое название : Dolby Digital
Идентификатор кодека : A_AC3
Продолжительность : 1 ч. 40 м.
Вид битрейта : Постоянный
Битрейт : 384 Кбит/сек
Каналы : 6 каналов
ChannelLayout : L R C LFE Ls Rs
Частота : 48,0 КГц
Частота кадров : 31,250 кадров/сек (1536 SPF)
Битовая глубина : 16 бит
Метод сжатия : С потерями
Размер потока : 277 Мбайт (1%)
Заголовок : Vizgunov
Язык : Russian
ServiceKind : Complete Main
Default : Нет
Forced : Нет

Аудио #6
Идентификатор : 7
Формат : AC-3
Формат/Информация : Audio Coding 3
Коммерческое название : Dolby Digital
Идентификатор кодека : A_AC3
Продолжительность : 1 ч. 40 м.
Вид битрейта : Постоянный
Битрейт : 384 Кбит/сек
Каналы : 6 каналов
ChannelLayout : L R C LFE Ls Rs
Частота : 48,0 КГц
Частота кадров : 31,250 кадров/сек (1536 SPF)
Битовая глубина : 16 бит
Метод сжатия : С потерями
Размер потока : 277 Мбайт (1%)
Заголовок : Kashkin
Язык : Russian
ServiceKind : Complete Main
Default : Нет
Forced : Нет

Аудио #7
Идентификатор : 8
Формат : MLP FBA
Формат/Информация : Meridian Lossless Packing FBA
Коммерческое название : Dolby TrueHD
Идентификатор кодека : A_TRUEHD
Продолжительность : 1 ч. 40 м.
Вид битрейта : Переменный
Битрейт : 3973 Кбит/сек
Максимальный битрейт : 5346 Кбит/сек
Каналы : 6 каналов
ChannelLayout : L R C LFE Ls Rs
Частота : 48,0 КГц
Частота кадров : 1200,000 кадров/сек (40 SPF)
Метод сжатия : Без потерь
Размер потока : 2,79 Гбайт (9%)
Язык : English
Default : Нет
Forced : Нет

Аудио #8
Идентификатор : 9
Формат : AC-3
Формат/Информация : Audio Coding 3
Коммерческое название : Dolby Digital
Идентификатор кодека : A_AC3
Продолжительность : 1 ч. 40 м.
Вид битрейта : Постоянный
Битрейт : 640 Кбит/сек
Каналы : 6 каналов
ChannelLayout : L R C LFE Ls Rs
Частота : 48,0 КГц
Частота кадров : 31,250 кадров/сек (1536 SPF)
Битовая глубина : 16 бит
Метод сжатия : С потерями
Размер потока : 461 Мбайт (2%)
Язык : English
ServiceKind : Complete Main
Default : Нет
Forced : Нет

Текст #1
Идентификатор : 10
Формат : UTF-8
Идентификатор кодека : S_TEXT/UTF8
Идентификатор кодека/Информация : UTF-8 Plain Text
Продолжительность : 1 ч. 34 м.
Битрейт : 78 бит/сек
ElementCount : 968
Размер потока : 54,0 Кбайт (0%)
Язык : Russian
Default : Нет
Forced : Нет

Текст #2
Идентификатор : 11
Формат : UTF-8
Идентификатор кодека : S_TEXT/UTF8
Идентификатор кодека/Информация : UTF-8 Plain Text
Продолжительность : 1 ч. 34 м.
Битрейт : 46 бит/сек
ElementCount : 948
Размер потока : 31,8 Кбайт (0%)
Язык : English
Default : Нет
Forced : Нет

Меню
00:00:00.000 : en:Chapter 1
00:02:21.474 : en:Chapter 2
00:06:48.491 : en:Chapter 3
00:10:07.148 : en:Chapter 4
00:14:19.942 : en:Chapter 5
00:16:36.370 : en:Chapter 6
00:20:25.140 : en:Chapter 7
00:23:08.345 : en:Chapter 8
00:26:40.974 : en:Chapter 9
00:30:10.767 : en:Chapter 10
00:33:38.975 : en:Chapter 11
00:36:29.103 : en:Chapter 12
00:39:16.812 : en:Chapter 13
00:42:44.728 : en:Chapter 14
00:48:16.560 : en:Chapter 15
00:49:48.986 : en:Chapter 16
00:54:33.645 : en:Chapter 17
01:02:00.341 : en:Chapter 18
01:06:30.319 : en:Chapter 19
01:10:42.863 : en:Chapter 20
01:15:02.456 : en:Chapter 21
01:16:16.071 : en:Chapter 22
01:20:42.504 : en:Chapter 23
01:26:00.280 : en:Chapter 24
01:30:28.798 : en:Chapter 25
01:33:02.493 : en:Chapter 26
01:36:33.788 : en:Chapter 27
КУБКИ

СТАЖ

МЕДАЛИ
Награды:93

За помощь проекту (9) Лучший по количеству кубков (3) За отличные раздачи и качество (32) За подробное оформление раздач (5) За отличные комментарии (9) Почётный форумчанин (7) Верный Сид (24) За участие в конкурсах/играх (2)

Аватара пользователя
Тортуга
kisa1980
Главный помощник Администратора-Корсар
  • Торрент
Для скачивания торрента необходимо зарегистрироваться или войти на трекер.

Вернуться в Зарубежное кино (1991-2000 / HD Video)



Uptime по данным Ping-Admin.Ru - сервиса мониторинга доступности сайтов
Рейтинг@Mail.ru Голосуйте за наш сайт в каталоге Rubo.Ru