logo
Международный русскоязычный
торрент-трекер
Menu
Поделиться с друзьями: 
Голосуй за Корсар и получи 500 дублонов
Рейтинг торрент трекеров - UpTracker.ru

По законам военного времени / 12 серий из 12 (2015, Военный, драма, исторический, детектив, HDTVRip-AVC) - KORSAR

Сообщение Sanechek » 07 май 2017, 21:21

Название: По законам военного времени
Год выхода: 2015
Жанр: Военный, драма, исторический, детектив
Режиссер: Максим Мехеда
В ролях: Евгений Воловенко, Екатерина Климова, Максим Дрозд, Сергей Сосновский, Валерий Сковронский, Игорь Петрусенко, Андрей Саминин, Пётр Крылов (III), Виталий Салий, Игорь Рубашкин, Валерий Шалыга, Михаил Жонин, Александра Сизоненко, Александр Панкратов-Чёрный

О фильме: Июль 1941 года. Фашисты рвутся к Киеву. Обстановка в городе накаляется с каждым днем, что добавляет работы лучшему следователю киевской военной прокуратуры Ивану Рокотову. Из Москвы неожиданно прибывает заместитель главного военного прокурора РККА Николай Мирский. Он создает особый отдел в военной прокуратуре фронта, в который входят Рокотов и бывший следователь Днепропетровского УГРО Светлана Елагина. Рокотову и Елагиной придется расследовать особо важные дела, действуя как на передовой, в Киевском укрепрайоне, так и в самом городе, где активизировавшийся преступный мир начинает объединяться с просачивающимися в город немецкими диверсантами. Да и некоторые представители Советской власти не прочь нагреть руки на страданиях народа.



Выпущено: Россия, Украина, StarMedia
Продолжительность: 12 х ~ 00:50:00
Перевод: не требуется

Файл
Кодек: х264
Качество: HDTVRip-AVC
Видео: MPEG-4 AVC, 1024x576, 25 fps, 2800 Кбит/с
Звук: AC3, 2 ch, 192 Кбит/с

x264 [info]: frame I:594 Avg QP:17.87 size: 75031
x264 [info]: frame P:17068 Avg QP:20.03 size: 31657
x264 [info]: frame B:53507 Avg QP:21.74 size: 7691
==================================================================
Общее
Уникальный идентификатор : 178912200491018701514385727269485565016 (0x86993C86F36AF2C18BFD35B96AC65458)
Полное имя : D:\К И Н О\По законам военного времени (2015)\01 серия.mkv
Формат : Matroska
Версия формата : Version 2
Размер файла : 1016 Мбайт
Продолжительность : 47 м. 26 с.
Общий поток : 2994 Кбит/сек
Дата кодирования : UTC 2017-05-08 07:20:52
Программа кодирования : mkvmerge v7.8.0 ('River Man') 32bit built on Apr 3 2015 12:11:22
Библиотека кодирования : libebml v1.3.1 + libmatroska v1.4.2

Видео
Идентификатор : 1
Формат : AVC
Формат/Информация : Advanced Video Codec
Профиль формата : High@L4.1
Параметр CABAC формата : Да
Параметр ReFrames формата : 12 кадров
Идентификатор кодека : V_MPEG4/ISO/AVC
Продолжительность : 47 м. 26 с.
Битрейт : 2800 Кбит/сек
Ширина : 1024 пикселя
Высота : 576 пикселей
Соотношение сторон : 16:9
Режим частоты кадров : Постоянный
Частота кадров : 25,000 кадров/сек
Цветовое пространство : YUV
Субдискретизация насыщенности : 4:2:0
Битовая глубина : 8 бит
Тип развёртки : Прогрессивная
Бит/(Пиксели*Кадры) : 0.190
Размер потока : 931 Мбайт (92%)
Библиотека кодирования : x264 core 148 r2744kMod b97ae06
Настройки программы : cabac=1 / ref=12 / deblock=1:-2:-2 / analyse=0x3:0x133 / me=umh / subme=10 / psy=1 / fade_compensate=0.00 / psy_rd=1.02:0.08 / mixed_ref=1 / me_range=32 / chroma_me=1 / trellis=2 / 8x8dct=1 / cqm=0 / deadzone=21,11 / fast_pskip=0 / chroma_qp_offset=-3 / threads=3 / lookahead_threads=1 / sliced_threads=0 / nr=0 / decimate=0 / interlaced=0 / bluray_compat=0 / constrained_intra=0 / bframes=16 / b_pyramid=2 / b_adapt=2 / b_bias=0 / direct=3 / weightb=1 / open_gop=0 / weightp=2 / keyint=250 / keyint_min=25 / scenecut=40 / intra_refresh=0 / rc=2pass / mbtree=0 / bitrate=2800 / ratetol=1.0 / qcomp=0.63 / qpmin=0 / qpmax=39 / qpstep=4 / cplxblur=20.0 / qblur=0.5 / ip_ratio=1.10 / pb_ratio=1.30 / aq=2:1.00
Язык : Russian
Default : Да
Forced : Нет
Цветовой диапазон : Limited
Основные цвета : BT.709
Характеристики трансфера : BT.709
Коэффициенты матрицы : BT.709

Аудио
Идентификатор : 2
Формат : AC-3
Формат/Информация : Audio Coding 3
Параметр Endianness формата : Big
Идентификатор кодека : A_AC3
Продолжительность : 47 м. 26 с.
Вид битрейта : Постоянный
Битрейт : 192 Кбит/сек
Каналы : 2 канала
Расположение каналов : Front: L R
Частота : 48,0 КГц
Частота кадров : 31,250 кадров/сек (1536 spf)
Битовая глубина : 16 бит
Метод сжатия : С потерями
Размер потока : 65,2 Мбайт (6%)
Язык : Russian
ServiceKind/String : Complete Main
Default : Да
Forced : Нет
Просьба отключить блокировщики рекламы на странице скриншотов по адресу: http://3.lostpic.net/, этим Вы поможете существованию проекта. Заранее спасибо!
КУБКИ

СТАЖ

МЕДАЛИ
Награды:71

Пожизненный VIP+ (1) За активную помощь проекту (4) Лучший по количеству кубков (9) За отличные раздачи и качество (24) За подробное оформление раздач (2) За отличные комментарии (7) Почётный форумчанин (1) Верный Сид (22)

Аватара пользователя
СССР
Sanechek
Главный Модератор-Корсар
Раздачи группы KORSAR доступны тем кто раздал не менее 15 гиг, а перезаливать разрешено только спустя 14 дней после публикации и с обязательным добавлением банера!!!
  • Торрент
Для скачивания торрента необходимо зарегистрироваться или войти на трекер.

Сообщение Sanechek » 18 май 2017, 12:25

Все серии.
КУБКИ

СТАЖ

МЕДАЛИ
Награды:71

Пожизненный VIP+ (1) За активную помощь проекту (4) Лучший по количеству кубков (9) За отличные раздачи и качество (24) За подробное оформление раздач (2) За отличные комментарии (7) Почётный форумчанин (1) Верный Сид (22)

Аватара пользователя
СССР
Sanechek
Главный Модератор-Корсар

Сообщение kwazar312 » 18 май 2017, 12:42

Уважаемый Sanechek,большое спасибо за хороший военный фильм.Удачи ВАМ.
КУБКИ

СТАЖ

МЕДАЛИ
Награды:148

Пожизненный VIP+ (3) За активную помощь проекту (14) Лучший по количеству кубков (46) За отличные раздачи и качество (3) За отличные комментарии (26) Почётный форумчанин (1) Верный Сид (49) За участие в конкурсах/играх (6)

Аватара пользователя
kwazar312
Заслуженный Корсар-VIP+

Сообщение Sanechek » 18 май 2017, 21:22

kwazar312 писал(а):Уважаемый Sanechek,большое спасибо за хороший военный фильм.Удачи ВАМ.

Пожалуйста, и Вам удачи!
КУБКИ

СТАЖ

МЕДАЛИ
Награды:71

Пожизненный VIP+ (1) За активную помощь проекту (4) Лучший по количеству кубков (9) За отличные раздачи и качество (24) За подробное оформление раздач (2) За отличные комментарии (7) Почётный форумчанин (1) Верный Сид (22)

Аватара пользователя
СССР
Sanechek
Главный Модератор-Корсар

Сообщение mister.hats » 19 май 2017, 15:17

Саша спасибо. :-good: :-drinks:
КУБКИ

СТАЖ

МЕДАЛИ
Награды:124

Пожизненный VIP+ (1) За активную помощь проекту (9) Лучший по количеству кубков (42) За отличные раздачи и качество (40) За подробное оформление раздач (2) За отличные комментарии (8) Почётный форумчанин (2) Верный Сид (20)

Аватара пользователя
Тортуга
mister.hats
Заслуженный Корсар-VIP+

Сообщение filbi1976 » 19 май 2017, 15:35

Саша, спасибо! :hi:
Качество, лучшее в сети. :you: :10 balov:
The Show Must Go On
Посмотреть товар в профиле пользователя

Нажмите на изображение, чтобы увидеть в полный размер  
1 шт.
Нажмите на изображение, чтобы увидеть в полный размер  
1 шт.
Нажмите на изображение, чтобы увидеть в полный размер  
1 шт.
Нажмите на изображение, чтобы увидеть в полный размер  
1 шт.
Нажмите на изображение, чтобы увидеть в полный размер  
1 шт.
Нажмите на изображение, чтобы увидеть в полный размер  
1 шт.
Нажмите на изображение, чтобы увидеть в полный размер  
1 шт.
Нажмите на изображение, чтобы увидеть в полный размер  
1 шт.
Нажмите на изображение, чтобы увидеть в полный размер  
1 шт.
Нажмите на изображение, чтобы увидеть в полный размер  
1 шт.
Нажмите на изображение, чтобы увидеть в полный размер  
1 шт.
Нажмите на изображение, чтобы увидеть в полный размер  
1 шт.
Нажмите на изображение, чтобы увидеть в полный размер  
1 шт.
Нажмите на изображение, чтобы увидеть в полный размер  
1 шт.
Нажмите на изображение, чтобы увидеть в полный размер  
1 шт.
КУБКИ

СТАЖ

МЕДАЛИ
Награды:174

За активную помощь проекту (5) Лучший по количеству кубков (1) За отличные раздачи и качество (114) За подробное оформление раздач (4) За отличные комментарии (8) Почётный форумчанин (3) Верный Сид (35) За участие в конкурсах/играх (2) 3 место в конкурсах/играх (1)

Аватара пользователя
Тортуга
filbi1976
Администратор-Корсар


Вернуться в Отечественные сериалы



Рейтинг@Mail.ru