logo
Международный русскоязычный
торрент-трекер
Menu
"Бунт на корабле", за скачанные торрент-файлы дублоны не снимаются. Возможность оплачена пользователем filbi1976.
Doublon
Поделиться с друзьями: 
Голосуй за Корсар и получи 500 дублонов
Рейтинг торрент трекеров - UpTracker.ru

Плоть + кровь / Flesh + Blood (1985, Драма, приключения, исторический, BDRip 720p) - KORSAR

Сообщение mister.hats » 11 дек 2017, 02:37

Плоть + кровь / Flesh+Blood


Год выпуска: 1985
Страна: Испания, США, Нидерланды
Студия: Impala, Riverside Pictures
Жанр: Драма, приключения, исторический
Продолжительность: 02:07:50
Перевод: Профессиональный (многоголосый закадровый), профессиональный (двухголосый закадровый), авторский

Режиссер: Пол Верховен
В ролях: Рутгер Хауэр, Дженнифер Джейсон Ли, Том Бёрлинсон, Джек Томпсон, Фернандо Ильбек, Сьюзен Тиррел, Рональд Лейси, Брайон Джеймс, Джон Деннис Джонстон, Симон Андреу

Описание: 1501 год. Вся Европа охвачена кровопролитными войнами. В городах свирепствует чума. Отряд ландскнехтов, руководимый бывшим наемником Мартином, захватывает в заложники невесту сына барона Арнольфини, когда-то предавшего Мартина. "Солдаты удачи" укрываются в заброшенном после эпидемии чумы замке и вступают в неравную битву с армией барона...
"Верховен отобразил истинные "темные века" без хромированно-лакированной гламурности, там модной сейчас в Голливуде. Вокруг убийства, насилие, секс, грязь, но для героев данного фильма все эти вещи нормальны и обыденны - они не знают другой жизни. И режиссер показывает нам, что мир не изменился с тех пор, как и люди... Очень жесткий реалистичный фильм."



Кодек: H264
Качество: BDRip 720p
Видео: MPEG-4 AVC, 1280x544, 23.976fps, 15.0 Mbps
Аудио 1: Русский, AC3, 6ch, 384 Кбит/с - Профессиональный (многоголосый закадровый) R5
Аудио 2: Русский, AC3, 6ch, 384 Кбит/с - Профессиональный (многоголосый закадровый) Н-Кино
Аудио 3: Русский, AC3, 2ch, 192 Кбит/с Профессиональный (двухголосый закадровый) НТВ
Аудио 4: Русский, АС3, 2 ch, 192 Кбит/с Авторский (одноголосый, закадровый) А. Гаврилов 1
Аудио 5: Русский, АС3, 2 ch, 192 Кбит/с Авторский (одноголосый, закадровый) А. Гаврилов 2
Аудио 6: Русский, АС3, 2 ch, 192 Кбит/с Авторский (одноголосый, закадровый) Ю. Сербин
Аудио 7: Русский, АС3, 2 ch, 320 Кбит/с Авторский (одноголосый, закадровый) А. Попов
Аудио 8: Русский, АС3, 2 ch, 192 Кбит/с Авторский (одноголосый, закадровый) Л.Володарский
Аудио 9: Русский, АС3, 2 ch, 192 Кбит/с Авторский (одноголосый, закадровый) А. Дольский
Аудио 10: Русский, АС3, 2 ch, 192 Кбит/с Авторский (одноголосый, закадровый) М. Яроцкий
Аудио 11: Украинский, АС3, 2 ch, 192 Кбит/с Профессиональный (двухголосый закадровый) AMC
Аудио 12: Украинский, АС3, 2 ch, 192 Кбит/с Профессиональный (двухголосый закадровый) 1+1
Аудио 13: Английский, АС3, 2 ch, 192 Кбит/с Оригинал
Субтитры: Русские, английские
Главы: Есть


x264 [info]: frame I:1053 Avg QP:17.98 size:182271
x264 [info]: frame P:41067 Avg QP:20.67 size:114066
x264 [info]: frame B:141793 Avg QP:22.71 size: 66987

Общее
Уникальный идентификатор : 192703783660001796301265480183487875008 (0x90F966137B0E694488ABB7318AC747C0)
Полное имя : I:\коллекция\Плоть и кровь 1985_BDRip 720p_KORSAR.mkv
Формат : Matroska
Версия формата : Version 2
Размер файла : 16,1 Гбайт
Продолжительность : 2 ч. 7 м.
Общий поток : 18,0 Мбит/сек
Название фильма : Плоть + кровь 1985г. от mister.hats
Дата кодирования : UTC 2019-08-18 23:34:50
Программа кодирования : mkvmerge v5.8.0 ('No Sleep / Pillow') built on Sep 2 2012 15:37:04
Библиотека кодирования : libebml v1.2.3 + libmatroska v1.3.0

Видео
Идентификатор : 1
Формат : AVC
Формат/Информация : Advanced Video Codec
Профиль формата : High@L4.1
Настройки формата : CABAC / 12 Ref Frames
Параметр CABAC формата : Да
Параметр RefFrames формата : 12 кадров
Идентификатор кодека : V_MPEG4/ISO/AVC
Продолжительность : 2 ч. 7 м.
Битрейт : 15,0 Мбит/сек
Ширина : 1280 пикселей
Высота : 544 пикселя
Соотношение сторон : 2,35:1
Режим частоты кадров : Постоянный
Частота кадров : 23,976 (24000/1001) кадра/сек
Цветовое пространство : YUV
Субдискретизация насыщенности : 4:2:0
Битовая глубина : 8 бит
Тип развёртки : Прогрессивная
Бит/(Пиксели*Кадры) : 0.898
Размер потока : 13,1 Гбайт (81%)
Библиотека кодирования : x264 core 152 r2851kMod ba24899
Настройки программы : cabac=1 / ref=12 / deblock=1:-2:-2 / analyse=0x3:0x113 / me=umh / subme=11 / psy=1 / fade_compensate=0.00 / psy_rd=1.03:0.05 / mixed_ref=1 / me_range=48 / chroma_me=1 / trellis=2 / 8x8dct=1 / cqm=0 / deadzone=21,11 / fast_pskip=0 / chroma_qp_offset=-3 / threads=12 / lookahead_threads=3 / sliced_threads=0 / nr=0 / decimate=0 / interlaced=0 / bluray_compat=0 / constrained_intra=0 / bframes=10 / b_pyramid=2 / b_adapt=2 / b_bias=0 / direct=3 / weightb=1 / open_gop=0 / weightp=2 / keyint=240 / keyint_min=23 / scenecut=40 / intra_refresh=0 / rc_lookahead=40 / rc=2pass / mbtree=0 / bitrate=15000 / ratetol=1.0 / qcomp=0.60 / qpmin=0 / qpmax=39 / qpstep=4 / cplxblur=20.0 / qblur=0.5 / vbv_maxrate=50000 / vbv_bufsize=62500 / nal_hrd=none / filler=0 / ip_ratio=1.40 / pb_ratio=1.30 / aq=2:1.00
Язык : English
Default : Да
Forced : Нет
Цветовой диапазон : Limited
Основные цвета : BT.709
Характеристики трансфера : BT.709
Коэффициенты матрицы : BT.709

Аудио #1
Идентификатор : 2
Формат : AC-3
Формат/Информация : Audio Coding 3
Параметр Endianness формата : Big
Идентификатор кодека : A_AC3
Продолжительность : 2 ч. 7 м.
Вид битрейта : Постоянный
Битрейт : 384 Кбит/сек
Каналы : 6 каналов
Расположение каналов : Front: L C R, Side: L R, LFE
Частота : 48,0 КГц
Частота кадров : 31,250 кадров/сек (1536 SPF)
Битовая глубина : 16 бит
Метод сжатия : С потерями
Размер потока : 351 Мбайт (2%)
Заголовок : Профессиональный (многоголосый закадровый) R5
Язык : Russian
Default : Да
Forced : Нет

Аудио #2
Идентификатор : 3
Формат : AC-3
Формат/Информация : Audio Coding 3
Параметр Endianness формата : Big
Идентификатор кодека : A_AC3
Продолжительность : 2 ч. 7 м.
Вид битрейта : Постоянный
Битрейт : 384 Кбит/сек
Каналы : 6 каналов
Расположение каналов : Front: L C R, Side: L R, LFE
Частота : 48,0 КГц
Частота кадров : 31,250 кадров/сек (1536 SPF)
Битовая глубина : 16 бит
Метод сжатия : С потерями
Размер потока : 351 Мбайт (2%)
Заголовок : Профессиональный (многоголосый закадровый) Н-Кино
Язык : Russian
Default : Нет
Forced : Нет

Аудио #3
Идентификатор : 4
Формат : AC-3
Формат/Информация : Audio Coding 3
Параметр Endianness формата : Big
Идентификатор кодека : A_AC3
Продолжительность : 2 ч. 7 м.
Вид битрейта : Постоянный
Битрейт : 192 Кбит/сек
Каналы : 2 канала
Расположение каналов : Front: L R
Частота : 48,0 КГц
Частота кадров : 31,250 кадров/сек (1536 SPF)
Битовая глубина : 16 бит
Метод сжатия : С потерями
Размер потока : 176 Мбайт (1%)
Заголовок : Профессиональный (двухголосый закадровый) НТВ
Язык : Russian
Default : Нет
Forced : Нет

Аудио #4
Идентификатор : 5
Формат : AC-3
Формат/Информация : Audio Coding 3
Параметр Endianness формата : Big
Идентификатор кодека : A_AC3
Продолжительность : 2 ч. 7 м.
Вид битрейта : Постоянный
Битрейт : 192 Кбит/сек
Каналы : 2 канала
Расположение каналов : Front: L R
Частота : 48,0 КГц
Частота кадров : 31,250 кадров/сек (1536 SPF)
Битовая глубина : 16 бит
Метод сжатия : С потерями
Размер потока : 176 Мбайт (1%)
Заголовок : Авторский (одноголосый, закадровый) А. Гаврилов 1
Язык : Russian
Default : Нет
Forced : Нет

Аудио #5
Идентификатор : 6
Формат : AC-3
Формат/Информация : Audio Coding 3
Параметр Endianness формата : Big
Идентификатор кодека : A_AC3
Продолжительность : 2 ч. 7 м.
Вид битрейта : Постоянный
Битрейт : 192 Кбит/сек
Каналы : 2 канала
Расположение каналов : Front: L R
Частота : 48,0 КГц
Частота кадров : 31,250 кадров/сек (1536 SPF)
Битовая глубина : 16 бит
Метод сжатия : С потерями
Размер потока : 176 Мбайт (1%)
Заголовок : Авторский (одноголосый, закадровый) А. Гаврилов 2
Язык : Russian
Default : Нет
Forced : Нет

Аудио #6
Идентификатор : 7
Формат : AC-3
Формат/Информация : Audio Coding 3
Параметр Endianness формата : Big
Идентификатор кодека : A_AC3
Продолжительность : 2 ч. 7 м.
Вид битрейта : Постоянный
Битрейт : 192 Кбит/сек
Каналы : 2 канала
Расположение каналов : Front: L R
Частота : 48,0 КГц
Частота кадров : 31,250 кадров/сек (1536 SPF)
Битовая глубина : 16 бит
Метод сжатия : С потерями
Размер потока : 176 Мбайт (1%)
Заголовок : Авторский (одноголосый, закадровый) Ю. Сербин
Язык : Russian
Default : Нет
Forced : Нет

Аудио #7
Идентификатор : 8
Формат : AC-3
Формат/Информация : Audio Coding 3
Параметр Endianness формата : Big
Идентификатор кодека : A_AC3
Продолжительность : 2 ч. 7 м.
Вид битрейта : Постоянный
Битрейт : 320 Кбит/сек
Каналы : 2 канала
Расположение каналов : Front: L R
Частота : 48,0 КГц
Частота кадров : 31,250 кадров/сек (1536 SPF)
Битовая глубина : 16 бит
Метод сжатия : С потерями
Размер потока : 293 Мбайт (2%)
Заголовок : Авторский (одноголосый, закадровый) А. Попов
Язык : Russian
Default : Нет
Forced : Нет

Аудио #8
Идентификатор : 9
Формат : AC-3
Формат/Информация : Audio Coding 3
Параметр Endianness формата : Big
Идентификатор кодека : A_AC3
Продолжительность : 2 ч. 7 м.
Вид битрейта : Постоянный
Битрейт : 192 Кбит/сек
Каналы : 2 канала
Расположение каналов : Front: L R
Частота : 48,0 КГц
Частота кадров : 31,250 кадров/сек (1536 SPF)
Битовая глубина : 16 бит
Метод сжатия : С потерями
Размер потока : 176 Мбайт (1%)
Заголовок : Авторский (одноголосый, закадровый) Л.Володарский
Язык : Russian
Default : Нет
Forced : Нет

Аудио #9
Идентификатор : 10
Формат : AC-3
Формат/Информация : Audio Coding 3
Параметр Endianness формата : Big
Идентификатор кодека : A_AC3
Продолжительность : 2 ч. 7 м.
Вид битрейта : Постоянный
Битрейт : 192 Кбит/сек
Каналы : 2 канала
Расположение каналов : Front: L R
Частота : 48,0 КГц
Частота кадров : 31,250 кадров/сек (1536 SPF)
Битовая глубина : 16 бит
Метод сжатия : С потерями
Размер потока : 176 Мбайт (1%)
Заголовок : Авторский (одноголосый, закадровый) А. Дольский
Язык : Russian
Default : Нет
Forced : Нет

Аудио #10
Идентификатор : 11
Формат : AC-3
Формат/Информация : Audio Coding 3
Параметр Endianness формата : Big
Идентификатор кодека : A_AC3
Продолжительность : 2 ч. 7 м.
Вид битрейта : Постоянный
Битрейт : 192 Кбит/сек
Каналы : 2 канала
Расположение каналов : Front: L R
Частота : 48,0 КГц
Частота кадров : 31,250 кадров/сек (1536 SPF)
Битовая глубина : 16 бит
Метод сжатия : С потерями
Размер потока : 176 Мбайт (1%)
Заголовок : Авторский (одноголосый, закадровый) М. Яроцкий
Язык : Russian
Default : Нет
Forced : Нет

Аудио #11
Идентификатор : 12
Формат : AC-3
Формат/Информация : Audio Coding 3
Параметр Endianness формата : Big
Идентификатор кодека : A_AC3
Продолжительность : 2 ч. 7 м.
Вид битрейта : Постоянный
Битрейт : 192 Кбит/сек
Каналы : 2 канала
Расположение каналов : Front: L R
Частота : 48,0 КГц
Частота кадров : 31,250 кадров/сек (1536 SPF)
Битовая глубина : 16 бит
Метод сжатия : С потерями
Размер потока : 176 Мбайт (1%)
Заголовок : Профессиональный (двухголосый закадровый) AMC
Язык : Ukrainian
Default : Нет
Forced : Нет

Аудио #12
Идентификатор : 13
Формат : AC-3
Формат/Информация : Audio Coding 3
Параметр Endianness формата : Big
Идентификатор кодека : A_AC3
Продолжительность : 2 ч. 7 м.
Вид битрейта : Постоянный
Битрейт : 192 Кбит/сек
Каналы : 2 канала
Расположение каналов : Front: L R
Частота : 48,0 КГц
Частота кадров : 31,250 кадров/сек (1536 SPF)
Битовая глубина : 16 бит
Метод сжатия : С потерями
Размер потока : 176 Мбайт (1%)
Заголовок : Профессиональный (двухголосый закадровый) 1+1
Язык : Ukrainian
Default : Нет
Forced : Нет

Аудио #13
Идентификатор : 14
Формат : AC-3
Формат/Информация : Audio Coding 3
Параметр Endianness формата : Big
Идентификатор кодека : A_AC3
Продолжительность : 2 ч. 7 м.
Вид битрейта : Постоянный
Битрейт : 192 Кбит/сек
Каналы : 2 канала
Расположение каналов : Front: L R
Частота : 48,0 КГц
Частота кадров : 31,250 кадров/сек (1536 SPF)
Битовая глубина : 16 бит
Метод сжатия : С потерями
Размер потока : 176 Мбайт (1%)
Заголовок : Оригинал
Язык : English
Default : Нет
Forced : Нет

Текст #1
Идентификатор : 15
Формат : UTF-8
Идентификатор кодека : S_TEXT/UTF8
Идентификатор кодека/Информация : UTF-8 Plain Text
Язык : Russian
Default : Нет
Forced : Нет

Текст #2
Идентификатор : 16
Формат : UTF-8
Идентификатор кодека : S_TEXT/UTF8
Идентификатор кодека/Информация : UTF-8 Plain Text
Язык : Russian
Default : Нет
Forced : Нет

Текст #3
Идентификатор : 17
Формат : UTF-8
Идентификатор кодека : S_TEXT/UTF8
Идентификатор кодека/Информация : UTF-8 Plain Text
Язык : English
Default : Нет
Forced : Нет

Меню
00:00:00.000 : en:Chapter 01
00:05:00.508 : en:Chapter 02
00:10:00.266 : en:Chapter 03
00:14:59.899 : en:Chapter 04
00:19:59.615 : en:Chapter 05
00:25:00.415 : en:Chapter 06
00:29:59.756 : en:Chapter 07
00:35:00.389 : en:Chapter 08
00:40:00.272 : en:Chapter 09
00:45:00.447 : en:Chapter 10
00:49:59.955 : en:Chapter 11
00:55:00.380 : en:Chapter 12
00:59:59.721 : en:Chapter 13
01:05:00.354 : en:Chapter 14
01:09:59.987 : en:Chapter 15
01:15:00.078 : en:Chapter 16
01:20:00.545 : en:Chapter 17
01:24:59.928 : en:Chapter 18
01:29:59.936 : en:Chapter 19
01:34:59.819 : en:Chapter 20
01:40:00.244 : en:Chapter 21
01:44:59.876 : en:Chapter 22
01:50:00.176 : en:Chapter 23
01:54:59.976 : en:Chapter 24
01:59:59.650 : en:Chapter 25
02:04:59.700 : en:Chapter 26



Просьба отключить блокировщики рекламы на странице скриншотов по адресу: http://3.lostpic.net/, этим Вы поможете существованию проекта. Заранее спасибо!
Последний раз редактировалось mister.hats 19 авг 2019, 04:14, всего редактировалось 4 раз(а).
КУБКИ

СТАЖ

МЕДАЛИ
Награды:107

За помощь проекту (8) Лучший по количеству кубков (32) За отличные раздачи и качество (37) За подробное оформление раздач (2) За отличные комментарии (6) Почётный форумчанин (4) Верный Сид (18)

Аватара пользователя
Тортуга
mister.hats
Заслуженный Корсар-Вип
Раздачи группы KORSAR разрешено перезаливать спустя 5 дней после публикации, с обязательным добавлением банера
  • Торрент
Для скачивания торрента необходимо зарегистрироваться или войти на трекер.

Сообщение kisa1980 » 11 дек 2017, 15:28

Дима, спасибо за фильм. :-drinks: :-good:
КУБКИ

СТАЖ

МЕДАЛИ
Награды:94

За помощь проекту (9) Лучший по количеству кубков (3) За отличные раздачи и качество (33) За подробное оформление раздач (5) За отличные комментарии (9) Почётный форумчанин (7) Верный Сид (24) За участие в конкурсах/играх (2)

Аватара пользователя
Тортуга
kisa1980
Главный помощник Администратора-Корсар

Сообщение Lonrak1975 » 12 авг 2019, 21:59

Отличный фильм,классика!
Огромное достоинство фильма — то, как передана атмосфера средних веков, вся эта ужасающая грязь, болезни, нищета и жестокость, тем не менее, живых, любящих и верящих людей. За счет реализма, прекрасных сьемок, насыщенного деталями и символами действия, происходит полное погружение в ту отдаленную эпоху :dwarf: :prankster2:
Плоть и кровь, любовь и смерть, благородство и предательство — все рядом, все органично переплетено.
Прекрасные актерские работы:Рутгер Хауэр, на высоте, Дженнифер Джейсон Ли чертовски обворожительна :super:
Пауль Верхувен постарался на славу.Так что для меня,что при первом просмотре в эпоху ВХС,что теперь,только уже
в прекрасном качестве кино-шедевр!!! И заслуженные :10 balov:
Ну и конечно большой :respect: mister.hats за отличный релиз :hi: :good: :good: :good:
КУБКИ

СТАЖ

МЕДАЛИ
Награды:23

За отличные комментарии (20) Почётный форумчанин (3)

Аватара пользователя
СССР
Lonrak1975
Заслуженный Корсар

Сообщение kwazar312 » 12 авг 2019, 23:50

Так сегодня посмотрел этот фильм. Оказывается, я его уже смотрел, но видимо, лет 20 назад, поэтому подзабыл. Фильм очень интересный. Во-первых, герои и не положительные, и не отрицательные - им можно в какой-то момент посочувствовать, в какой-то осудить. Сразу хочу сказать в адрес тех,кто пишет комменты типа "страшный фильм, разврат, жестокость и т.д." В этом фильме еще все очень красиво показано. Вы вот возьмите-ка приключения Анжелики почитайте, первую книгу хотя бы - вот интересно, что вы тогда скажете? Рутгер Хауэр шикарен, как всегда, что еще сказать, актер с уникальной харизмой и умением вживаться в роли. Поступки его героя - в зависимости от ситуации нисколько не уменьшают к нему симпатии. Предали - мстит, нападают - обороняется. Он солдат, единственное, что он умеет - выживать, что собственно, и делает. Агнесс тоже пришлось выкручиваться из ситуации, огромное самообладание у девушки, ситуация была скользкая и опасная. Отвращения ее поведение не вызывает. Молодой милорд - классический рыцарь на белом коне, проявил мужество и спас свою даму сердца. Только вот дама сердца, похоже, так и не смогла для себя сделать окончательный выбор. Не выдала же Мартина...
Раздающему спасибо!Надо скачать,оказалось,что в коллекции отсутствует.
:hi: :10 balov:
КУБКИ

СТАЖ

МЕДАЛИ
Награды:121

За помощь проекту (12) Лучший по количеству кубков (36) За отличные раздачи и качество (2) За отличные комментарии (22) Почётный форумчанин (2) Верный Сид (41) За участие в конкурсах/играх (6)

Аватара пользователя
kwazar312
Заслуженный Корсар-Вип

Сообщение mister.hats » 13 авг 2019, 00:21

Скоро будет полная замена звука на 6 канальный, плюс доп переводы. :hi:
КУБКИ

СТАЖ

МЕДАЛИ
Награды:107

За помощь проекту (8) Лучший по количеству кубков (32) За отличные раздачи и качество (37) За подробное оформление раздач (2) За отличные комментарии (6) Почётный форумчанин (4) Верный Сид (18)

Аватара пользователя
Тортуга
mister.hats
Заслуженный Корсар-Вип

Сообщение Lonrak1975 » 13 авг 2019, 15:09

На TeamHD сделали ремукс с британского блюрика с полным набором дорог!!!
И уже перезалили на несколько трекеров.
Вот бы рип 1080 увидеть от мастеров KORSAR,было бы шикарно ;) :pirates_:
КУБКИ

СТАЖ

МЕДАЛИ
Награды:23

За отличные комментарии (20) Почётный форумчанин (3)

Аватара пользователя
СССР
Lonrak1975
Заслуженный Корсар

Сообщение mister.hats » 13 авг 2019, 15:24

Lonrak1975 писал(а):На TeamHD сделали ремукс с британского блюрика с полным набором дорог!!!
И уже перезалили на несколько трекеров.
Вот бы рип 1080 увидеть от мастеров KORSAR,было бы шикарно ;) :pirates_:

Знаем...
1080 смысл делать если он будет размером с ремукс. Не жмеца он. :hi:
КУБКИ

СТАЖ

МЕДАЛИ
Награды:107

За помощь проекту (8) Лучший по количеству кубков (32) За отличные раздачи и качество (37) За подробное оформление раздач (2) За отличные комментарии (6) Почётный форумчанин (4) Верный Сид (18)

Аватара пользователя
Тортуга
mister.hats
Заслуженный Корсар-Вип

Сообщение Lonrak1975 » 13 авг 2019, 15:42

Ясно,спасибо большое mister.hats :hi: :friends:
КУБКИ

СТАЖ

МЕДАЛИ
Награды:23

За отличные комментарии (20) Почётный форумчанин (3)

Аватара пользователя
СССР
Lonrak1975
Заслуженный Корсар

Сообщение filbi1976 » 13 авг 2019, 18:55

mister.hats писал(а):Скоро будет полная замена звука на 6 канальный, плюс доп переводы.


Когда будет, вот тогда и напишешь, так будет правельнее.
Посмотреть товар в профиле пользователя

Нажмите на изображение, чтобы увидеть в полный размер  
1 шт.
Нажмите на изображение, чтобы увидеть в полный размер  
1 шт.
Нажмите на изображение, чтобы увидеть в полный размер  
1 шт.
Нажмите на изображение, чтобы увидеть в полный размер  
1 шт.
Нажмите на изображение, чтобы увидеть в полный размер  
1 шт.
Нажмите на изображение, чтобы увидеть в полный размер  
1 шт.
Нажмите на изображение, чтобы увидеть в полный размер  
1 шт.
Нажмите на изображение, чтобы увидеть в полный размер  
1 шт.
Нажмите на изображение, чтобы увидеть в полный размер  
1 шт.
Нажмите на изображение, чтобы увидеть в полный размер  
1 шт.
Нажмите на изображение, чтобы увидеть в полный размер  
1 шт.
Нажмите на изображение, чтобы увидеть в полный размер  
1 шт.
Нажмите на изображение, чтобы увидеть в полный размер  
1 шт.
Нажмите на изображение, чтобы увидеть в полный размер  
1 шт.
Нажмите на изображение, чтобы увидеть в полный размер  
1 шт.
КУБКИ

СТАЖ

МЕДАЛИ
Награды:118

За помощь проекту (3) За отличные раздачи и качество (74) За отличные комментарии (6) Почётный форумчанин (5) Верный Сид (27) За участие в конкурсах/играх (1)

Аватара пользователя
Тортуга
filbi1976
Администратор-Корсар

Сообщение mister.hats » 13 авг 2019, 21:16

Замена звука.
Яроцкого любезно предоставил Lonrak1975
КУБКИ

СТАЖ

МЕДАЛИ
Награды:107

За помощь проекту (8) Лучший по количеству кубков (32) За отличные раздачи и качество (37) За подробное оформление раздач (2) За отличные комментарии (6) Почётный форумчанин (4) Верный Сид (18)

Аватара пользователя
Тортуга
mister.hats
Заслуженный Корсар-Вип

Сообщение kwazar312 » 19 авг 2019, 08:11

Скачиваю обновленный вариант.Кино отличное!
Уважаемые mister.hats и Lonrak1975 !
Спасибо ВАМ за этот исторический фильм.
:hi: :good: :good: :10 balov:
КУБКИ

СТАЖ

МЕДАЛИ
Награды:121

За помощь проекту (12) Лучший по количеству кубков (36) За отличные раздачи и качество (2) За отличные комментарии (22) Почётный форумчанин (2) Верный Сид (41) За участие в конкурсах/играх (6)

Аватара пользователя
kwazar312
Заслуженный Корсар-Вип


Вернуться в Зарубежное кино (1981-1990 / HD Video)



Uptime по данным Ping-Admin.Ru - сервиса мониторинга доступности сайтов
Рейтинг@Mail.ru Голосуйте за наш сайт в каталоге Rubo.Ru