logo
Международный русскоязычный
торрент-трекер
Menu

Магазин-KorsaRDoublon

Поделиться с друзьями: 
Голосуй и получи дублоны
Рейтинг торрент трекеров - UpTracker.ru

Плохие / Отбросы / Misfits / Сезоны: 1-5 / Серии: 1-37 из 37 + 2 вебизода (2009-2013, фантастика, драма, комедия, HDRip-AVC)

Сообщение Korsar » 12 янв 2017, 00:31

Отбросы / Misfits
Годы выпуска: 2009-2013
Страна: Великобритания
Жанр: фантастика, драма, комедия
Продолжительность: 00:45:00
Перевод: Профессиональный (двухголосый закадровый) Кубик в кубе
Автор идеи: Говард Оверман / Howard Overman
В ролях: Нейтан Стюарт-Джарретт, Джозеф Гилган, Юан Рион, Лорен Соха, Антония Томас, Карла Кроум, Нейтан МакМаллен, Шон Дули, Мэтт Стоуки, Роберт Шиан, Наташа О'Кифф, Крейг Паркинсон, Мэттью МакНалти, Алекс Рид, Майкл Вингер, Рут Негга, Майкл Обиора, Мэтт Кросс, Рут Шин, Элли Кендрик, Кеинде Фадипе, Оливер Ленсли, Дэнни Сапани, Люси Гаскелл, Кейт Брекен, Гиллиан Сейкер, Гвинет Киворт, Джозеф Алтин, Джессика Браун Финли, Мишель Фейрли, Декстер Флетчер и др.
Описание: Келли, Нейтан, Кертис, Алиша и Саймон выполняют общественные работы за совершение мелких преступлений. Они — не друзья. Более того, у них нет ничего общего. В группе постоянно происходят конфликты, споры и драки. Но в удивительный день во время сильного шторма сильная молния делает из них супергероев и наделяет их сверхвозможностями. Они понятия не имеют, что делать с этими сверхвозможностями. Более того, никто из них не рад своей новой силе, потому что она раскрывает их самые глубокие комплексы и тайны, которые бы они не хотели выставлять напоказ.
| Сэмпл | КиноПоиск | IMDb
Качество: HDRip
Формат: MKV
Видео: 960x540 at 25 fps, MPEG-4 AVC, ~2000 kbps avg
Аудио 1: Russian: 48 kHz, AC3, 2 ch, ~192.00 kbps avg
Аудио 2: English: 48 kHz, AC3, 2 ch, ~192.00 kbps avg
Субтитры: русские (el_brujo и др.)

Рип, синхронизация субтитров: whip93
Работа со звуком: ЛП, 13napas, markinscor, whip93
На первый сезон было сделано два варианта озвучки: 1 - по переводу Roadster, 2 - по переводу el_brujo.
Сэмпл
Качество: HDRip
Формат: MKV
Видео: 960x540 at 25 fps, MPEG-4 AVC, ~2000 kbps avg
Аудио 1: Russian: 48 kHz, AC3, 2 ch, ~224.00 kbps avg
Аудио 2: Russian: 48 kHz, AC3, 2 ch, ~192.00 kbps avg
Аудио 3: English: 48 kHz, AC3, 2 ch, ~192.00 kbps avg
Субтитры: русские (Roadster)
Код: Выделить всё
General
Unique ID                   : 254423233344412175989218093578743899580 (0xBF6821E2A530C27AB2F65B264986E5BC)
Complete name               : C:\Сериалы\Misfits The Complete Collection CasStudio.TV\The Complete 1st Season\Misfits.S01E01.HDRip.2xRus.Eng.CasStudio.TV.mkv
Format                      : Matroska
Format version              : Version 4 / Version 2
File size                   : 851 MiB
Duration                    : 45mn 37s
Overall bit rate            : 2 607 Kbps
Movie name                  : Отбросы | Misfits (S01E01) - Release by CasStudio.TV
Encoded date                : UTC 2016-07-27 07:56:38
Writing application         : mkvmerge v6.1.0 ('Old Devil') built on Mar  4 2013 09:10:42
Writing library             : libebml v1.3.0 + libmatroska v1.4.0

Video
ID                          : 1
Format                      : AVC
Format/Info                 : Advanced Video Codec
Format profile              : High@L4.1
Format settings, CABAC      : Yes
Format settings, ReFrames   : 12 frames
Codec ID                    : V_MPEG4/ISO/AVC
Duration                    : 45mn 37s
Bit rate                    : 2 000 Kbps
Width                       : 960 pixels
Height                      : 540 pixels
Display aspect ratio        : 16:9
Frame rate mode             : Constant
Frame rate                  : 25.000 fps
Color space                 : YUV
Chroma subsampling          : 4:2:0
Bit depth                   : 8 bits
Scan type                   : Progressive
Bits/(Pixel*Frame)          : 0.154
Stream size                 : 635 MiB (75%)
Title                       : Encoded by whip93
Writing library             : x264 core 148 r2665kMod a01e339
Encoding settings           : cabac=1 / ref=13 / deblock=1:-3:-3 / analyse=0x3:0x133 / me=umh / subme=9 / psy=1 / fade_compensate=0.00 / psy_rd=0.08:2.00 / mixed_ref=1 / me_range=64 / chroma_me=1 / trellis=1 / 8x8dct=1 / cqm=0 / deadzone=21,11 / fast_pskip=1 / chroma_qp_offset=-6 / threads=10 / lookahead_threads=1 / sliced_threads=0 / nr=0 / decimate=1 / interlaced=0 / bluray_compat=0 / constrained_intra=0 / fgo=0 / bframes=13 / b_pyramid=1 / b_adapt=0 / b_bias=0 / direct=3 / weightb=1 / open_gop=0 / weightp=2 / keyint=250 / keyint_min=25 / scenecut=40 / intra_refresh=0 / rc_lookahead=60 / rc=2pass / mbtree=1 / bitrate=2000 / ratetol=1.0 / qcomp=0.70 / qpmin=0 / qpmax=69 / qpstep=4 / cplxblur=20.0 / qblur=0.5 / vbv_maxrate=62500 / vbv_bufsize=78125 / nal_hrd=none / filler=0 / ip_ratio=1.40 / aq=1:1.00
Language                    : English
Default                     : Yes
Forced                      : No
Color range                 : Limited
Color primaries             : BT.709
Transfer characteristics    : BT.709
Matrix coefficients         : BT.709

Audio #1
ID                          : 2
Format                      : AC-3
Format/Info                 : Audio Coding 3
Mode extension              : CM (complete main)
Format settings, Endianness : Big
Codec ID                    : A_AC3
Duration                    : 45mn 37s
Bit rate mode               : Constant
Bit rate                    : 224 Kbps
Channel(s)                  : 2 channels
Channel positions           : Front: L R
Sampling rate               : 48.0 KHz
Compression mode            : Lossy
Stream size                 : 73.1 MiB (9%)
Title                       : Кубик в кубе (Roadster)
Language                    : Russian
Default                     : Yes
Forced                      : No

Audio #2
ID                          : 3
Format                      : AC-3
Format/Info                 : Audio Coding 3
Mode extension              : CM (complete main)
Format settings, Endianness : Big
Codec ID                    : A_AC3
Duration                    : 45mn 37s
Bit rate mode               : Constant
Bit rate                    : 192 Kbps
Channel(s)                  : 2 channels
Channel positions           : Front: L R
Sampling rate               : 48.0 KHz
Compression mode            : Lossy
Stream size                 : 62.6 MiB (7%)
Title                       : Кубик в кубе (el_brujo)
Language                    : Russian
Default                     : No
Forced                      : No

Audio #3
ID                          : 4
Format                      : AC-3
Format/Info                 : Audio Coding 3
Mode extension              : CM (complete main)
Format settings, Endianness : Big
Codec ID                    : A_AC3
Duration                    : 45mn 37s
Bit rate mode               : Constant
Bit rate                    : 192 Kbps
Channel(s)                  : 2 channels
Channel positions           : Front: L R
Sampling rate               : 48.0 KHz
Compression mode            : Lossy
Stream size                 : 62.6 MiB (7%)
Language                    : English
Default                     : No
Forced                      : No

Text
ID                          : 5
Format                      : UTF-8
Codec ID                    : S_TEXT/UTF8
Codec ID/Info               : UTF-8 Plain Text
Language                    : Russian
Default                     : No
Forced                      : No

Menu
00:00:00.000                : en:Chapter 1
00:08:06.400                : en:Chapter 2
00:16:01.560                : en:Chapter 3
00:24:02.840                : en:Chapter 4
00:30:27.920                : en:Chapter 5
00:38:29.080                : en:Chapter 6
Код: Выделить всё
General
Unique ID                           : 228955698675821357856200436659585954343 (0xAC3F437B681C568C80DCA5A92F163227)
Complete name                       : D:\Фильмы\Misfits The Complete Collection CasStudio.TV\The Complete 2nd Season\Misfits.S02E01.HDRip.Rus.Eng.CasStudio.TV.mkv
Format                              : Matroska
Format version                      : Version 4 / Version 2
File size                           : 807 MiB
Duration                            : 47mn 19s
Overall bit rate                    : 2 384 Kbps
Movie name                          : Отбросы | Misfits (S02E01) - Release by CasStudio.TV
Encoded date                        : UTC 2016-07-31 04:35:01
Writing application                 : mkvmerge v6.1.0 ('Old Devil') built on Mar  4 2013 09:10:42
Writing library                     : libebml v1.3.0 + libmatroska v1.4.0

Video
ID                                  : 1
Format                              : AVC
Format/Info                         : Advanced Video Codec
Format profile                      : High@L4.1
Format settings, CABAC              : Yes
Format settings, ReFrames           : 12 frames
Codec ID                            : V_MPEG4/ISO/AVC
Duration                            : 47mn 19s
Bit rate                            : 2 000 Kbps
Width                               : 960 pixels
Height                              : 540 pixels
Display aspect ratio                : 16:9
Frame rate mode                     : Constant
Frame rate                          : 25.000 fps
Color space                         : YUV
Chroma subsampling                  : 4:2:0
Bit depth                           : 8 bits
Scan type                           : Progressive
Bits/(Pixel*Frame)                  : 0.154
Stream size                         : 661 MiB (82%)
Title                               : Encoded by whip93
Writing library                     : x264 core 148 r2665kMod a01e339
Encoding settings                   : cabac=1 / ref=13 / deblock=1:-3:-3 / analyse=0x3:0x133 / me=umh / subme=9 / psy=1 / fade_compensate=0.00 / psy_rd=0.08:2.00 / mixed_ref=1 / me_range=64 / chroma_me=1 / trellis=1 / 8x8dct=1 / cqm=0 / deadzone=21,11 / fast_pskip=1 / chroma_qp_offset=-6 / threads=10 / lookahead_threads=1 / sliced_threads=0 / nr=0 / decimate=1 / interlaced=0 / bluray_compat=0 / constrained_intra=0 / fgo=0 / bframes=13 / b_pyramid=1 / b_adapt=0 / b_bias=0 / direct=3 / weightb=1 / open_gop=0 / weightp=2 / keyint=250 / keyint_min=25 / scenecut=40 / intra_refresh=0 / rc_lookahead=60 / rc=2pass / mbtree=1 / bitrate=2000 / ratetol=1.0 / qcomp=0.70 / qpmin=0 / qpmax=69 / qpstep=4 / cplxblur=20.0 / qblur=0.5 / vbv_maxrate=62500 / vbv_bufsize=78125 / nal_hrd=none / filler=0 / ip_ratio=1.40 / aq=1:1.00
Language                            : English
Default                             : Yes
Forced                              : No
Color primaries                     : BT.709
Transfer characteristics            : BT.709
Matrix coefficients                 : BT.709

Audio #1
ID                                  : 2
Format                              : AC-3
Format/Info                         : Audio Coding 3
Mode extension                      : CM (complete main)
Format settings, Endianness         : Big
Codec ID                            : A_AC3
Duration                            : 47mn 19s
Bit rate mode                       : Constant
Bit rate                            : 192 Kbps
Channel(s)                          : 2 channels
Channel positions                   : Front: L R
Sampling rate                       : 48.0 KHz
Bit depth                           : 16 bits
Compression mode                    : Lossy
Stream size                         : 65.0 MiB (8%)
Language                            : Russian
Default                             : Yes
Forced                              : No

Audio #2
ID                                  : 3
Format                              : AC-3
Format/Info                         : Audio Coding 3
Mode extension                      : CM (complete main)
Format settings, Endianness         : Big
Codec ID                            : A_AC3
Duration                            : 47mn 19s
Bit rate mode                       : Constant
Bit rate                            : 192 Kbps
Channel(s)                          : 2 channels
Channel positions                   : Front: L R
Sampling rate                       : 48.0 KHz
Bit depth                           : 16 bits
Compression mode                    : Lossy
Stream size                         : 65.0 MiB (8%)
Language                            : English
Default                             : No
Forced                              : No

Text
ID                                  : 4
Format                              : UTF-8
Codec ID                            : S_TEXT/UTF8
Codec ID/Info                       : UTF-8 Plain Text
Language                            : Russian
Default                             : No
Forced                              : No

Menu
00:00:00.000                        : en:Chapter 1
00:08:11.320                        : en:Chapter 2
00:17:25.640                        : en:Chapter 3
00:25:31.040                        : en:Chapter 4
00:35:01.240                        : en:Chapter 5
00:39:37.080                        : en:Chapter 6
Аватара пользователя
Korsar
Помощник Администратора-Корсар
 
Месяцев на трекере: 9Месяцев на трекере: 9Месяцев на трекере: 9Месяцев на трекере: 9Месяцев на трекере: 9Месяцев на трекере: 9Месяцев на трекере: 9Месяцев на трекере: 9Месяцев на трекере: 9
 

Награды: 2
За отличные раздачи (2)
  • Торрент
Для скачивания торрента необходимо зарегистрироваться или войти на трекер.

Вернуться в Зарубежные сериалы



мониторинг сайтов