logo
Международный русскоязычный
торрент-трекер
Menu
"Бунт на корабле", за скачанные торрент-файлы дублоны не снимаются. Возможность оплачена пользователем filbi1976.
Doublon
Поделиться с друзьями: 
Голосуй за Корсар и получи 500 дублонов
Рейтинг торрент трекеров - UpTracker.ru

План побега 3 / Escape Plan: The Extractors (2019, Боевик, BDRip-AVC) | Расширенная версия | iTunes

Сообщение Korsarka » 11 сен 2019, 14:55

Название: План побега 3
Оригинальное название: Escape Plan: The Extractors
Год выхода: 2019
Жанр: Боевик
Режиссер: Джон Херцфелд
В ролях: Сильвестр Сталлоне, Дэйв Батиста, 50 Cent, Джейми Кинг, Макс Чжан, Девон Сава, Гарри Шам мл., Расселл Вонг, Дэниэл Бернхард, Лидия Халл

О фильме: Непревзойденный взломщик тюрем Рэй Бреслин опять ввязался в смертельно опасную авантюру: вместе со своей командой он берётся разыскать похищенную дочь своего друга - бизнесмена из Гонконга. Нити расследования приводят к одной из самых секретных тюрем Америки, которая называется «Пункт Дьявола».




Страна: США
Студия: Emmett/Furla/Oasis Films (EFO Films), Leomus Pictures, Twirly Films Limited
Продолжительность: 01:37:20
Перевод: Дублированный | iTunes

БЕЗ КАКОЙ-ЛИБО РЕКЛАМЫ!

Формат: MKV
Качество: BDRip-AVC
Видео: MPEG-4 AVC, 1024x426 (2.40:1), 23.976 fps, 2362 Kbps, 0.226 bit/pixel
Аудио: 48 kHz, AC3, 5.1, 384 Kbps | RUS |


General
Unique ID : 187354501219012958513921162813911757859 (0x8CF32A16DC9E1BF78051085DADA67423)
Complete name : D:Escape.Plan.The.Extractors.2019.Extended.Cut.BDRip.AVC.ExKinoRay.mkv
Format : Matroska
Format version : Version 2
File size : 1.85 GiB
Duration : 1 h 37 min
Overall bit rate : 2 720 kb/s
Movie name : Escape Plan The Extractors 2019 from ExKinoRay
Encoded date : UTC 2019-09-10 11:28:55
Writing application : mkvmerge v5.6.0 ('Kenya Kane') built on May 27 2012 16:44:04
Writing library : libebml v1.2.3 + libmatroska v1.3.0

Video
ID : 1
Format : AVC
Format/Info : Advanced Video Codec
Format profile : High@L4.1
Format settings, CABAC : Yes
Format settings, ReFrames : 12 frames
Codec ID : V_MPEG4/ISO/AVC
Duration : 1 h 37 min
Bit rate : 2 362 kb/s
Width : 1 024 pixels
Height : 426 pixels
Display aspect ratio : 2.40:1
Frame rate mode : Constant
Frame rate : 23.976 (23976/1000) FPS
Color space : YUV
Chroma subsampling : 4:2:0
Bit depth : 8 bits
Scan type : Progressive
Bits/(Pixel*Frame) : 0.226
Stream size : 1.55 GiB (84%)
Title : Enigma
Writing library : x264 core 152 r2851 ba24899
Encoding settings : cabac=1 / ref=12 / deblock=1:-1:-2 / analyse=0x3:0x113 / me=umh / subme=10 / psy=1 / psy_rd=0.98:0.50 / mixed_ref=1 / me_range=32 / chroma_me=1 / trellis=2 / 8x8dct=1 / cqm=0 / deadzone=21,11 / fast_pskip=0 / chroma_qp_offset=-4 / threads=12 / lookahead_threads=3 / sliced_threads=0 / nr=0 / decimate=0 / interlaced=0 / bluray_compat=0 / constrained_intra=0 / bframes=12 / b_pyramid=2 / b_adapt=2 / b_bias=0 / direct=3 / weightb=1 / open_gop=0 / weightp=2 / keyint=240 / keyint_min=23 / scenecut=40 / intra_refresh=0 / rc=2pass / mbtree=0 / bitrate=2362 / ratetol=1.0 / qcomp=0.60 / qpmin=0 / qpmax=51 / qpstep=4 / cplxblur=20.0 / qblur=0.5 / ip_ratio=1.25 / pb_ratio=1.30 / aq=3:0.80
Language : English
Default : Yes
Forced : No
Color range : Limited
Color primaries : BT.709
Transfer characteristics : BT.709
Matrix coefficients : BT.709

Audio
ID : 2
Format : AC-3
Format/Info : Audio Coding 3
Mode extension : CM (complete main)
Format settings, Endianness : Big
Codec ID : A_AC3
Duration : 1 h 37 min
Bit rate mode : Constant
Bit rate : 384 kb/s
Channel(s) : 6 channels
Channel positions : Front: L C R, Side: L R, LFE
Sampling rate : 48.0 kHz
Frame rate : 31.250 FPS (1536 spf)
Compression mode : Lossy
Stream size : 267 MiB (14%)
Title : iTunes
Language : Russian
Default : Yes
Forced : No

Menu
00:00:00.000 : fr:00:00:00.000
00:09:22.979 : fr:00:09:22.979
00:17:31.133 : fr:00:17:31.133
00:24:01.607 : fr:00:24:01.607
00:30:59.274 : fr:00:30:59.274
00:37:19.737 : fr:00:37:19.737
00:43:40.034 : fr:00:43:40.034
00:50:12.426 : fr:00:50:12.426
00:58:11.405 : fr:00:58:11.405
01:05:44.190 : fr:01:05:44.190
01:16:39.220 : fr:01:16:39.220
01:27:37.294 : fr:01:27:37.294







Релиз от:

Автор релиза:
КУБКИ

СТАЖ

МЕДАЛИ
Награды:59

За помощь проекту (1) Лучший по количеству кубков (11) За отличные раздачи и качество (23) За подробное оформление раздач (1) За отличные комментарии (6) Почётный форумчанин (4) Верный Сид (10)

Аватара пользователя
Korsarka
Уважаемый Релизёр-Корсар
  • Торрент
Для скачивания торрента необходимо зарегистрироваться или войти на трекер.

Вернуться в Зарубежное кино (2011-2019)



Uptime по данным Ping-Admin.Ru - сервиса мониторинга доступности сайтов
Рейтинг@Mail.ru