logo
Международный русскоязычный
торрент-трекер
Menu
"Бунт на корабле", за скачанные торрент-файлы дублоны не снимаются. Возможность оплачена пользователем glazik9090.
Doublon
Поделиться с друзьями: 
Голосуй за Корсар и получи 500 дублонов
Рейтинг торрент трекеров - UpTracker.ru

Пит и Тилли / Pete 'n' Tillie (1972, драма, мелодрама, комедия, WEB-DL 1080p)

Сообщение kisa1980 » 08 ноя 2019, 19:55

Название: Пит и Тилли
Оригинальное название: Pete 'n' Tillie
Год выпуска: 1972
Жанр: Драма, мелодрама, комедия
Режиссер: Мартин Ритт
В ролях: Уолтер Мэттау, Кэрол Бёрнетт, Джеральдин Пейдж, Бэрри Нельсон, Рене Обержонуа, Ли Монтгомери, Генри Джонс, Кент Смит, Филип Бурнюф, Уит Бисселл

Описание: Тилли — умная, скромная и рассудительная женщина бальзаковского возраста. Пит — остроумный, саркастичный, крайне прямолинейный и успешный мужчина, который не пропускает ни одной юбки. Несмотря на полярность характеров, их свидание вслепую, организованное общими друзьями, оборачивается необычным романом. Но впереди героев ждет множество испытаний.



Страна: США
Студия: Universal Pictures
Продолжительность: 01:40:24
Перевод: Профессиональный (многоголосый, закадровый)

Качество: WEB-DL 1080p
Контейнер: MKV
Видео: MPEG-4 AVC Video, 2.35:1, 1920x816, 23.976 fps, 14.5 Mbps
Аудио 1: Russian (AC3, 2 ch, 192 kbps, 16 bits, 48.0 KHz) - MVO
Аудио 2: English (E-AC3, 2 ch, 224 kbps, 16 bits, 48.0 KHz) - Оригинал
Субтитры: Английские


General
Unique ID : 234524414308725525744261545688086144378 (0xB06FC25C49C3A0FDAED0AF7E84A8E57A)
Complete name : J:\Pete.n.Tillie.1972.1080p.AMZN.WEB-DL.1080p-monkee.mkv
Format : Matroska
Format version : Version 4 / Version 2
File size : 10.7 GiB
Duration : 1 h 40 min
Overall bit rate mode : Variable
Overall bit rate : 15.2 Mb/s
Encoded date : UTC 2019-11-06 19:15:16
Writing application : mkvmerge v6.1.0 ('Old Devil') built on Mar 2 2013 14:32:37
Writing library : libebml v1.3.0 + libmatroska v1.4.0

Video
ID : 1
Format : AVC
Format/Info : Advanced Video Codec
Format profile : High@L4
Format settings : CABAC / 4 Ref Frames
Format settings, CABAC : Yes
Format settings, ReFrames : 4 frames
Codec ID : V_MPEG4/ISO/AVC
Duration : 1 h 40 min
Bit rate mode : Variable
Bit rate : 14.5 Mb/s
Maximum bit rate : 15.0 Mb/s
Width : 1 920 pixels
Height : 816 pixels
Display aspect ratio : 2.35:1
Frame rate mode : Constant
Frame rate : 23.976 (24000/1001) FPS
Color space : YUV
Chroma subsampling : 4:2:0
Bit depth : 8 bits
Scan type : Progressive
Bits/(Pixel*Frame) : 0.386
Stream size : 10.2 GiB (95%)
Language : English
Default : Yes
Forced : No
Color range : Limited
Color primaries : BT.709
Transfer characteristics : BT.709
Matrix coefficients : BT.709

Audio #1
ID : 2
Format : AC-3
Format/Info : Audio Coding 3
Codec ID : A_AC3
Duration : 1 h 40 min
Bit rate mode : Constant
Bit rate : 192 kb/s
Channel(s) : 2 channels
Channel positions : Front: L R
Sampling rate : 48.0 kHz
Frame rate : 31.250 FPS (1536 SPF)
Bit depth : 16 bits
Compression mode : Lossy
Stream size : 138 MiB (1%)
Language : Russian
Service kind : Complete Main
Default : Yes
Forced : No

Audio #2
ID : 3
Format : E-AC-3
Format/Info : Enhanced Audio Coding 3
Codec ID : A_EAC3
Duration : 1 h 40 min
Bit rate mode : Constant
Bit rate : 224 kb/s
Channel(s) : 2 channels
Channel positions : Front: L R
Sampling rate : 48.0 kHz
Frame rate : 187.500 FPS (256 SPF)
Compression mode : Lossy
Stream size : 161 MiB (1%)
Language : English
Service kind : Complete Main
Default : No
Forced : No

Text
ID : 4
Format : UTF-8
Codec ID : S_TEXT/UTF8
Codec ID/Info : UTF-8 Plain Text
Language : English
Default : No
Forced : No
КУБКИ

СТАЖ

МЕДАЛИ
Награды:106

За активную помощь проекту (10) Лучший по количеству кубков (3) За отличные раздачи и качество (36) За подробное оформление раздач (6) За отличные комментарии (9) Почётный форумчанин (11) Верный Сид (27) За участие в конкурсах/играх (2)

Аватара пользователя
Тортуга
kisa1980
Главный помощник Администратора-Корсар
  • Торрент
Для скачивания торрента необходимо зарегистрироваться или войти на трекер.

Вернуться в Классика зарубежного кино (фильмы до 1980 года / HD Video)



Uptime по данным Ping-Admin.Ru - сервиса мониторинга доступности сайтов
Рейтинг@Mail.ru