logo
Международный русскоязычный
торрент-трекер
Menu
"Бунт на корабле", за скачанные торрент-файлы дублоны не снимаются. Возможность оплачена пользователем filbi1976.
Doublon
Поделиться с друзьями: 
Голосуй за Корсар и получи 500 дублонов
Рейтинг торрент трекеров - UpTracker.ru

Pink Floyd - The Early Years 1965-1972 (2016, Rock, Progressive Rock, Psychedelic Rock, DVD-9 + DVD-5)

Сообщение Korsar » 19 май 2018, 22:29

Pink Floyd - The Early Years 1965-1972


Страна: UK
Жанр: Rock, Progressive Rock, Psychedelic Rock
Продолжительность: 16:22:20
Год выпуска: 2016
Лейбл: Pink Floyd Records
Разбивка на главы по трекам: есть
Качество : DVD5
Формат: DVD video
Видео кодек: MPEG2
Аудио кодек: PCM
Видео: MPEG-2, 720x480 (NTSC 16:9), 23.976 fps, 7317-7247 Kbps
Аудио: PCM, 1536 Kbps, 48.0 KHz, 2 ch
Продолжительность: 01:00:47
Треклист:
01. Chapter 24: Cambridgeshire, UK 1966
02. Nick’s Boogie: Sound Techniques Studio
03. Interstellar Overdrive: 'Scene - Underground'
04. Arnold Layne: (Promo Video)
05. Pow R. Toc H. / Astronomy Domine Plus Syd Barrett And Roger Waters Interview: 'The Look Of The Week'
06. The Scarecrow: 'Pathé Pictorial'
07. Jugband Blues: 'London Line'
08. Apples And Oranges Plus Dick Clark Interview: 'American Bandstand'
09. Instrumental Improvisation: BBC ‘Tomorrow’s World’
10. Instrumental Improvisation: 'Die Jungen Nachtwandler'
11. See Emily Play: 'Top Of The Pops' - Partially Restored BBC Studios
12. The Scarecrow (Outtakes): 'Pathé Pictorial'
13. Interstellar Overdrive: 'Science Fiction - Das Universum Des Ichs'
Код: Выделить всё
Title: Локальный диск
Size: 4.24 Gb ( 4 442 214 KBytes ) - DVD-5
Enabled regions: 1, 2, 3, 4, 5, 6, 7, 8
VTS_01 :
  Play Length: 01:00:47
  Video: NTSC 16:9 (720x480) VBR, Auto Pan&Scan
  Audio:
      English (LinearPCM, 2 ch)
  Subtitles:
      English
      Francais
      Deutsch
      Italiano
      Espanol
      Nederlands
      Portugues
      Polish
      Chinese
      Chinese
VTS_02 :
  Play Length: 00:00:22
  Video: NTSC 16:9 (720x480) VBR, Auto Pan&Scan
  Audio:
      English (LinearPCM, 2 ch)
Разбивка на главы по трекам: есть
Качество : DVD9
Формат: DVD video
Видео кодек: MPEG2
Аудио кодек: PCM
Видео: MPEG-2, 720x480 (NTSC 16:9), 23.976 fps, 7141-7403 Kbps
Аудио: PCM, 1536 Kbps, 48.0 KHz, 2 ch
Продолжительность: 01:27:07
Треклист:
Tienerklanken’, Brussels, Belgium, 18-19 February 1968
01. Astronomy Domine
02. The Scarecrow
03. Corporal Clegg
04. Paintbox
05. Set The Controls For The Heart Of The Sun
06. See Emily Play
07. Bike
Brussels, Belgium, February 1968
08. Apples And Oranges: ‘Vibrato'
'Bouton Rouge’, Paris, France, 20 February 1968
09. Astronomy Domine
10. Flaming
11. Set The Controls For The Heart Of The Sun
12. Let There Be More Light
1968 TV Appearances
13. Paintbox: ‘Discorama’
14. Instrumental Improvisation: ‘The Sound Of Change'
15. Set The Controls For The Heart Of The Sun: ‘All My Loving’
16. It Would Be So Nice (Excerpt): ‘Release - Rome Goes Pop’
17. Interstellar Overdrive: ‘Pop 68’
‘Tienerklanken - Kastival’, Kasterlee, Belgium, 31 August 1968
18. Astronomy Domine
19. Roger Waters Interview
‘Samedi et Compagnie’, Paris, France, 06 September 1968
20. Let There Be More Light
21. Remember A Day
'A L’Affiche du Monde’, London, UK, 1968
22. Let There Be More Light
‘Tous En Scene’, Paris, France, 21 October 1968
23. Let There Be More Light
24. Flaming
1968 TV Appearances
25. Let There Be More Light: ‘Surprise Partie'
26. Point Me At The Sky: Restored Promo Video
Код: Выделить всё
Title: Локальный диск
Size: 5.94 Gb ( 6 226 426 KBytes ) - DVD-9
Enabled regions: 1, 2, 3, 4, 5, 6, 7, 8
VTS_01 :
  Play Length: 01:27:07
  Video: NTSC 16:9 (720x480) VBR, Auto Pan&Scan
  Audio:
      English (LinearPCM, 2 ch)
  Subtitles:
      English
      Francais
      Deutsch
      Italiano
      Espanol
      Nederlands
      Portugues
      Polish
      Chinese
      Chinese
VTS_02 :
  Play Length: 00:00:22
  Video: NTSC 16:9 (720x480) VBR, Auto Pan&Scan
  Audio:
      English (LinearPCM, 2 ch)
Разбивка на главы по трекам: есть
Качество : DVD9
Формат: DVD video
Видео кодек: MPEG2
Аудио кодек: PCM
Видео: MPEG-2, 720x480 (NTSC 16:9), 23.976 fps, 7349-7624 Kbps
Аудио: PCM, 1536 Kbps, 48.0 KHz, 2 ch
Продолжительность: 01:35:32
Треклист:
‘Forum Musiques’, Paris, France, 22 January 1969
01. Set The Controls For The Heart Of The Sun
02. A Saucerful Of Secrets
‘The Man’ And ‘The Journey’, Royal Festival Hall, London, Rehearsal, April 14, 1969
03. Afternoon (Biding My Time)
04. The Beginning (Green Is The Colour)
05. Cymbaline
06. Beset By Creatures Of The Deep
07. The End Of The Beginning (A Saucerful Of Secrets)
Essener Pop And Blues Festival, Essen, Germany, October 11 1969
08. Careful With That Axe, Eugene
09. A Saucerful Of Secrets
Music Power And European Music Revolution, Festival Actuel, Amougies Mont de L’Enclus, Belgium, 25 October 1969
10. Green Is The Colour
11. Careful With That Axe, Eugene
12. Set The Controls For The Heart Of The Sun
13. Interstellar Overdrive (Feat – Frank Zappa)
Код: Выделить всё
Title: Локальный диск
Size: 6.48 Gb ( 6 793 100 KBytes ) - DVD-9
Enabled regions: 1, 2, 3, 4, 5, 6, 7, 8
VTS_01 :
  Play Length: 01:35:32
  Video: NTSC 16:9 (720x480) VBR, Auto Pan&Scan
  Audio:
      English (LinearPCM, 2 ch)
  Subtitles:
      English
      Francais
      Deutsch
      Italiano
      Espanol
      Nederlands
      Portugues
      Polish
      Chinese
      Chinese
VTS_02 :
  Play Length: 00:00:21
  Video: NTSC 16:9 (720x480) VBR, Auto Pan&Scan
  Audio:
      English (LinearPCM, 2 ch)
Разбивка на главы по трекам: есть
Качество : 2xDVD9
Формат: DVD video
Видео кодек: MPEG2
Аудио кодек: PCM, AC3, DTS
Продолжительность: (00:58:16 + 00:51:08) + 01:21:36
DVD 1
Видео: MPEG-2, 720x480 (NTSC 16:9), 23.976 fps, 4933-6348/4000 Kbps
Аудио: PCM, 1536 Kbps, 48.0 KHz, 2 ch (KQED)
Аудио: AC3, 448 Kbps, 48.0 KHz, 4 ch (Quad Mix)
Аудио: DTS, 1510 Kbps, 48.0 KHz, 4 ch (Quad Mix)
DVD 2
Видео: MPEG-2, 720x480 (NTSC 16:9), 23.976 fps, 5152-7323 Kbps
Аудио: PCM, 1536 Kbps, 48.0 KHz, 2 ch
An Hour With Pink Floyd: KQED, San Francisco, USA, 30 April 1970
01. Atom Heart Mother
02. Cymbaline
03. Grantchester Meadows
04. Green Is The Colour
05. Careful With That Axe, Eugene
06. Set The Controls For The Heart Of The Sun
Atom Heart Mother Album Original 4.0 Quad Mix 1970
07. Atom Heart Mother
08. If
09. Summer ’68
10. Fat Old Sun
11. Alan’s Psychedelic Breakfast
Код: Выделить всё
Title: Локальный диск
Size: 5.53 Gb ( 5 800 430 KBytes ) - DVD-9
Enabled regions: 1, 2, 3, 4, 5, 6, 7, 8
VTS_01 :
  Play Length: 00:58:16
  Video: NTSC 16:9 (720x480) VBR, Auto Pan&Scan
  Audio:
      English (LinearPCM, 2 ch)
  Subtitles:
      Francais
      Deutsch
      Italiano
      Espanol
      Nederlands
      Portugues
      Polish
      Chinese
      Chinese
VTS_02 :
  Play Length: 00:51:08
  Video: NTSC 16:9 (720x480) VBR, Auto Pan&Scan
  Audio:
      English (Dolby AC3, 4 ch)
      English (DTS, 4 ch)
VTS_03 :
  Play Length: 00:00:21
  Video: NTSC 16:9 (720x480) VBR, Auto Pan&Scan
  Audio:
      English (LinearPCM, 2 ch)
Код: Выделить всё
Общее
Полное имя : D:\Pink Floyd Vol 4 1970 Deviation\DVD 1\VIDEO_TS\VTS_01_2.VOB
Формат : MPEG-PS
Размер файла : 1024 Мбайт
Продолжительность : 21 м.
Режим общего битрейта : Переменный
Общий поток : 6600 Кбит/сек
Видео
Идентификатор : 224 (0xE0)
Формат : MPEG Video
Версия формата : Version 2
Профиль формата : Main@Main
Параметр BVOP формата : Да
Параметр матрицы формата : Выборочная
Параметр GOP формата : Variable
Продолжительность : 21 м.
Вид битрейта : Переменный
Битрейт : 4933 Кбит/сек
Максимальный битрейт : 9800 Кбит/сек
Ширина : 720 пикселей
Высота : 480 пикселей
Соотношение сторон : 16:9
Частота кадров : 23,976 кадра/сек
Стандарт вещания : NTSC
Цветовое пространство : YUV
Субдискретизация насыщенности : 4:2:0
Битовая глубина : 8 бит
Тип развёртки : Прогрессивная
Порядок развёртки : 2:3 Pulldown
Метод сжатия : С потерями
Бит/(Пиксели*Кадры) : 0.595
Временной код первого кадра : 00:17:46:22
Оригинал временного кода : Group of pictures header
Размер потока : 765 Мбайт (75%)
Аудио
Идентификатор : 189 (0xBD)-160 (0xA0)
Формат : PCM
Параметр Endianness формата : Big
Параметр Sign формата : Signed
Режим смешивания : DVD-Video
Продолжительность : 21 м.
Вид битрейта : Постоянный
Битрейт : 1536 Кбит/сек
Каналы : 2 канала
Частота : 48,0 КГц
Битовая глубина : 24 бит
Задержка видео : -369 мс.
Размер потока : 238 Мбайт (23%)
Общее
Полное имя : D:\Pink Floyd Vol 4 1970 Deviation\DVD 1\VIDEO_TS\VTS_02_1.VOB
Формат : MPEG-PS
Размер файла : 1024 Мбайт
Продолжительность : 23 м.
Общий поток : 6083 Кбит/сек
Видео
Идентификатор : 224 (0xE0)
Формат : MPEG Video
Версия формата : Version 2
Профиль формата : Main@Main
Параметр BVOP формата : Да
Параметр матрицы формата : Выборочная
Параметр GOP формата : M=3, N=12
Продолжительность : 23 м.
Битрейт : 4000 Кбит/сек
Ширина : 720 пикселей
Высота : 480 пикселей
Соотношение сторон : 16:9
Частота кадров : 23,976 кадра/сек
Стандарт вещания : NTSC
Цветовое пространство : YUV
Субдискретизация насыщенности : 4:2:0
Битовая глубина : 8 бит
Тип развёртки : Прогрессивная
Порядок развёртки : 2:3 Pulldown
Метод сжатия : С потерями
Бит/(Пиксели*Кадры) : 0.483
Временной код первого кадра : 00:00:00:00
Оригинал временного кода : Group of pictures header
Размер потока : 674 Мбайт (66%)
Аудио #1
Идентификатор : 189 (0xBD)-128 (0x80)
Формат : AC-3
Формат/Информация : Audio Coding 3
Расширение режима : CM (complete main)
Параметр Endianness формата : Big
Режим смешивания : DVD-Video
Продолжительность : 23 м.
Вид битрейта : Постоянный
Битрейт : 448 Кбит/сек
Каналы : 4 канала
Расположение каналов : Front: L R, Side: L R
Частота : 48,0 КГц
Битовая глубина : 16 бит
Метод сжатия : С потерями
Размер потока : 75,4 Мбайт (7%)
Аудио #2
Идентификатор : 189 (0xBD)-137 (0x89)
Формат : DTS
Формат/Информация : Digital Theater Systems
Режим : 16
Параметр Endianness формата : Big
Режим смешивания : DVD-Video
Продолжительность : 23 м.
Вид битрейта : Постоянный
Битрейт : 1510 Кбит/сек
Каналы : 4 канала
Расположение каналов : Front: L R, Side: L R
Частота : 48,0 КГц
Битовая глубина : 24 бит
Метод сжатия : С потерями
Размер потока : 254 Мбайт (25%)
Pop Deux - Festival de St. Tropez’, France, 8 August 1970: Part 1
1. Cymbaline (Soundcheck)
2. Atom Heart Mother
3. Embryo
Pop Deux - Festival de St. Tropez’, France, 8 August 1970: Part 2
4. Green Is The Colour
5. Careful With That Axe, Eugene
6. Set The Controls For The Heart Of The Sun
Show Roland Petit, Paris, France, 5 December 1970
7. Instrumental Improvisations 1,2,3 Live In The Studio
8. Embryo
Blackhill’s Garden Party,Hyde Park, London, UK, 18 July 1970
9 Atom Heart Mother With The Philip Jones Brass Ensemble / John Alldis Choir
Код: Выделить всё
Title: Локальный диск
Size: 4.50 Gb ( 4 714 440 KBytes ) - DVD-9
Enabled regions: 1, 2, 3, 4, 5, 6, 7, 8
VTS_01 :
  Play Length: 01:21:36
  Video: NTSC 16:9 (720x480) VBR, Auto Pan&Scan
  Audio:
      English (LinearPCM, 2 ch)
  Subtitles:
      English
      Francais
      Deutsch
      Italiano
      Espanol
      Nederlands
      Portugues
      Polish
      Chinese
      Chinese
VTS_02 :
  Play Length: 00:00:21
  Video: NTSC 16:9 (720x480) VBR, Auto Pan&Scan
  Audio:
      English (LinearPCM, 2 ch)
Разбивка на главы по трекам: есть
Качество : DVD9
Формат: DVD video
Видео кодек: MPEG2
Аудио кодек: PCM
Продолжительность: 01:10:01 + 00:23:41
Видео: MPEG-2, 720x480 (NTSC 16:9), 23.976 fps, 5767-5970/4000 Kbps
Аудио: PCM, 1536 Kbps, 48.0 KHz, 2 ch
Audio Only / Original 4.0 Quad Mix 1971
Аудио: AC3, 448 Kbps, 48.0 KHz, 4 ch
Аудио: DTS, 1510 Kbps, 48.0 KHz, 4 ch
Треклист:
‘Aspekte’ Feature: Germany 1971
01. Interview + Atom Heart Mother (Extracts)
02. A Saucerful Of Secrets (Extract)
‘Cinq Grands Sur La Deux’ Abbaye de Royaumont, Asnierès-sur-Oise, France, 15 June 1971
03. Set The Control For The Heart Of The Sun
04. Cymbaline
'Musikforum Ossiachersee’, Ossiach, Austria, 1 July 1971
05. Atom Heart Mother (Extract)
'Get To Know', Randwick Race Course, Sydney, Australia, 15 August 1971
06. Careful With That Axe, Eugene (Band Interview)
’24 Hours - Bootleg Records’, London, UK, 1971
07. Documentary Including Pink Floyd And Manager Steve O'Rourke
Review’, London, UK, 1971
08. Storm Thorgerson And Aubrey ‘Po’ Powell
09. One Of These Days (‘French Windows’)
‘Musikforum Ossiachersee’, Ossiach, Austria, 1 July 1971
10. Atom Heart Mother (Extract, In Colour)
’71 Hakone Aphrodite 15.11 Open Air Festival,Hakone, Japan, 6-7 August 1971
11. Atom Heart Mother
Audio Only / Original 4.0 Quad Mix 1971
12 Echoes
Код: Выделить всё
Title: Локальный диск
Size: 5.06 Gb ( 5 305 254 KBytes ) - DVD-9
Enabled regions: 1, 2, 3, 4, 5, 6, 7, 8
VTS_01 :
  Play Length: 01:10:01
  Video: NTSC 16:9 (720x480) VBR, Auto Pan&Scan
  Audio:
      English (LinearPCM, 2 ch)
  Subtitles:
      English
      Francais
      Deutsch
      Italiano
      Espanol
      Nederlands
      Portugues
      Polish
      Chinese
      Chinese
VTS_02 :
  Play Length: 00:23:41
  Video: NTSC 16:9 (720x480) VBR, Auto Pan&Scan
  Audio:
      English (Dolby AC3, 4 ch)
      English (DTS, 4 ch)
VTS_03 :
  Play Length: 00:00:21
  Video: NTSC 16:9 (720x480) VBR, Auto Pan&Scan
  Audio:
      English (LinearPCM, 2 ch)
Код: Выделить всё
Общее
Полное имя : D:\Pink Floyd Vol 5 1971 Reverberation\VIDEO_TS\VTS_02_1.VOB
Формат : MPEG-PS
Размер файла : 1024 Мбайт
Продолжительность : 23 м.
Общий поток : 6083 Кбит/сек
Видео
Идентификатор : 224 (0xE0)
Формат : MPEG Video
Версия формата : Version 2
Профиль формата : Main@Main
Параметр BVOP формата : Да
Параметр матрицы формата : Выборочная
Параметр GOP формата : M=3, N=12
Продолжительность : 23 м.
Битрейт : 4000 Кбит/сек
Ширина : 720 пикселей
Высота : 480 пикселей
Соотношение сторон : 16:9
Частота кадров : 23,976 кадра/сек
Стандарт вещания : NTSC
Цветовое пространство : YUV
Субдискретизация насыщенности : 4:2:0
Битовая глубина : 8 бит
Тип развёртки : Прогрессивная
Порядок развёртки : 2:3 Pulldown
Метод сжатия : С потерями
Бит/(Пиксели*Кадры) : 0.483
Временной код первого кадра : 01:00:00:00
Оригинал временного кода : Group of pictures header
Размер потока : 674 Мбайт (66%)
Аудио #1
Идентификатор : 189 (0xBD)-128 (0x80)
Формат : AC-3
Формат/Информация : Audio Coding 3
Расширение режима : CM (complete main)
Параметр Endianness формата : Big
Режим смешивания : DVD-Video
Продолжительность : 23 м.
Вид битрейта : Постоянный
Битрейт : 448 Кбит/сек
Каналы : 4 канала
Расположение каналов : Front: L R, Side: L R
Частота : 48,0 КГц
Битовая глубина : 16 бит
Метод сжатия : С потерями
Размер потока : 75,4 Мбайт (7%)
Аудио #2
Идентификатор : 189 (0xBD)-137 (0x89)
Формат : DTS
Формат/Информация : Digital Theater Systems
Режим : 16
Параметр Endianness формата : Big
Режим смешивания : DVD-Video
Продолжительность : 23 м.
Вид битрейта : Постоянный
Битрейт : 1510 Кбит/сек
Каналы : 4 канала
Расположение каналов : Front: L R, Side: L R
Частота : 48,0 КГц
Битовая глубина : 24 бит
Метод сжатия : С потерями
Размер потока : 254 Мбайт (25%)
Разбивка на главы по трекам: есть
Качество : DVD9
Формат: DVD video
Видео кодек: MPEG2
Аудио кодек: PCM
Продолжительность: 00:49:33 + 00:59:47
Видео: MPEG-2, 720x480 (NTSC 16:9), 23.976 fps, 4676-5418/3932-4117 Kbps
Аудио: PCM, 1536 Kbps, 48.0 KHz, 2 ch
Live At Pompeii
Аудио: PCM, 1536 Kbps, 48.0 KHz, 2 ch
Аудио: AC3, 448 Kbps, 48.0 KHz, 6 ch
Аудио: DTS, 1510 Kbps, 48.0 KHz, 6 ch
Треклист:
Recording Obscured by Clouds, Château d’Hérouville, France, 23-29 February 1972
01. Wot’s… Uh The Deal: With Recording Session Photos
02. Pop Deux: Documentary Recording Obscured By Clouds
Brighton Dome, UK, 29 June 1972
03. Set The Controls For The Heart Of The Sun
04. Careful With That Axe, Eugene
Roland Petit Pink Floyd Ballet, France, News Reports 1972-73
05. Actualités Méditerranée, Marseille, 22 November 1972
06. Jt Nuit - Les Pink Floyd, Marseille, 26 November 1972
07. Jt 20h - Pink Floyd, Paris, 12 January 1973
08. Journal de Paris - Les Pink Floyd, Paris, 12 January 1973
Poitiers - Autour Du Passage Des Pink Floyd
09. Concert Set Up News Report - France, 29 November 1972
Live At Pompeii (With 2016 5.1 Audio Remix)
10. Careful With That Axe, Eugene
11. A Saucerful Of Secrets
12. One Of These Days
13. Set The Controls For The Heart Of The Sun
14. Echoes
Код: Выделить всё
Title: Локальный диск
Size: 5.91 Gb ( 6 196 456 KBytes ) - DVD-9
Enabled regions: 1, 2, 3, 4, 5, 6, 7, 8
VTS_01 :
  Play Length: 00:49:33
  Video: NTSC 16:9 (720x480) VBR, Auto Pan&Scan
  Audio:
      English (LinearPCM, 2 ch)
  Subtitles:
      English
      Francais
      Deutsch
      Italiano
      Espanol
      Nederlands
      Portugues
      Polish
      Chinese
      Chinese
VTS_02 :
  Play Length: 00:59:47
  Video: NTSC 16:9 (720x480) VBR, Auto Pan&Scan
  Audio:
      English (Dolby AC3, 6 ch)
      English (DTS, 6 ch)
      English (LinearPCM, 2 ch)
VTS_03 :
  Play Length: 00:00:21
  Video: NTSC 16:9 (720x480) VBR, Auto Pan&Scan
  Audio:
      English (LinearPCM, 2 ch)
Разбивка на главы по трекам: есть
Качество : DVD9
Формат: DVD video
Видео кодек: MPEG2
Аудио кодек: PCM, AC3
Продолжительность: (01:10:21 + 00:53:14) + (01:56:49+01:44:28)
DVD 1
Видео: MPEG-2, 720x480 (NTSC 16:9), 23.976 fps, 4723-6341/6446-6686 Kbps
Аудио: PCM, 1536 Kbps, 48.0 KHz, 2 ch
Аудио: AC3, 256 Kbps, 48.0 KHz, 2 ch (Feature Film)
DVD 2
Видео: MPEG-2, 720x480 (NTSC 16:9), 23.976 fps, 3959-4246 Kbps
Аудио: AC3, 256 Kbps, 48.0 KHz, 2 ch
Hampstead Heath And St. Michael’s Church, Highgate, London, UK, March 1967
01. Arnold Layne (Alternative Version)
‘P1 - P Wie Petersilie’ Stuggart, Germany, 22 July 1969
02. Corporal Clegg
03. Band Interview
04. A Saucerful Of Secrets
Bath Festival Of Blues & Progressive Music’, Shepton Mallet, UK, 27 June 1970
05. Atom Heart Mother
'Kralingen Music Festival’ Rotterdam, The Netherlands, 28 June 1970
06. Set The Controls For The Heart Of The Sun
07. A Saucerful Of Secrets
‘The Amsterdam Rock Circus’ Amsterdam, The Netherlands, 22 May 1972
08. Atom Heart Mother
09. Careful With That Axe, Eugene
10. A Saucerful Of Secrets
Feature Film
11. The Committee
Код: Выделить всё
Title: Локальный диск
Size: 6.55 Gb ( 6 872 210 KBytes ) - DVD-9
Enabled regions: 1, 2, 3, 4, 5, 6, 7, 8
VTS_01 :
  Play Length: 01:10:21
  Video: NTSC 16:9 (720x480) VBR, Auto Pan&Scan
  Audio:
      English (LinearPCM, 2 ch)
  Subtitles:
      English
      Francais
      Deutsch
      Italiano
      Espanol
      Nederlands
      Portugues
      Polish
      Chinese
      Chinese
VTS_02 :
  Play Length: 00:53:14
  Video: NTSC 16:9 (720x480) VBR, Auto Pan&Scan
  Audio:
      English (Dolby AC3, 2 ch)
  Subtitles:
      English
      Francais
      Deutsch
      Italiano
      Espanol
      Nederlands
      Portugues
      Polish
      Chinese
      Chinese
VTS_03 :
  Play Length: 00:00:21
  Video: NTSC 16:9 (720x480) VBR, Auto Pan&Scan
  Audio:
      English (LinearPCM, 2 ch)
1. More
2. ‘La Vallée’ (Obscured By Clouds)
Код: Выделить всё
Title: Локальный диск
Size: 6.80 Gb ( 7 133 056 KBytes ) - DVD-9
Enabled regions: 1, 2, 3, 4, 5, 6, 7, 8
VTS_01 :
  Play Length: 01:56:49+01:44:28
  Video: NTSC 16:9 (720x480) VBR, Auto Pan&Scan
  Audio:
      English (Dolby AC3, 2 ch)
КУБКИ

СТАЖ

МЕДАЛИ
Награды:9

Лучший по количеству кубков (1) За отличные раздачи и качество (2) За отличные комментарии (2) Почётный форумчанин (2) Верный Сид (2)

Аватара пользователя
СССР
Korsar
Заслуженный Корсар-Вип+
  • Торрент
Для скачивания торрента необходимо зарегистрироваться или войти на трекер.

Вернуться в Музыка (SD Video)



Uptime по данным Ping-Admin.Ru - сервиса мониторинга доступности сайтов
Рейтинг@Mail.ru Голосуйте за наш сайт в каталоге Rubo.Ru