logo
Международный русскоязычный
торрент-трекер
Menu
"Бунт на корабле", за скачанные торрент-файлы дублоны не снимаются. Возможность оплачена пользователем Bulfrogg.
Doublon
Поделиться с друзьями: 
Голосуй за Корсар и получи 500 дублонов
Рейтинг торрент трекеров - UpTracker.ru

Пиковая дама: Зазеркалье (2019, Ужасы, BDRip 1080p) | GER Transfer | Лицензия

Сообщение Korsarka » 24 июн 2019, 03:04

Название: Пиковая дама: Зазеркалье
Год выпуска: 2019
Жанр: Ужасы
Режиссер: Александр Домогаров мл.
В ролях: Ангелина Стречина, Даниил Муравьёв-Изотов, Владислав Коноплёв, Клаудиа Бочар, Игорь Яшанин, Валерий Панков, Владимир Канухин, Алена Швиденкова, Ян Алабушев, Анастасия Талызина

Описание: Зловещий призрак Пиковой Дамы снова жаждет крови, и на этот раз его жертвами становятся воспитанники школы-интерната, расположенного в старинном особняке, окутанном мрачными слухами. Развлекая друг друга страшилками об убийствах детей, которые совершались в этом доме в позапрошлом столетии, подростки находят в заброшенном крыле здания таинственное зеркало, покрытое загадочными рисунками. Ради шутки, ученики проводят перед этим зеркалом мистический обряд вызова духа Пиковой Дамы и загадывают самые сокровенные желания, надеясь, что призрак их исполнит. Шутники не подозревают о том, что платой за выполнение каждой прихоти станут их собственные души - и что Пиковая Дама не успокоится, пока не получит их все.



Страна: Россия
Студия: RB Productions
Продолжительность: 01:23:37
Перевод: Не требуется | Лицензия Blu-Ray GER

Формат: MKV
Качество: BDRip 1080p
Видео: MPEG-4 AVC, 1920x804 (2.40:1), 24.000 fps, 12.8 Мbps, 0.345 bit/pixel
Звук: 48 kHz, AC3 Dolby Digital, 3/2 (L,C,R,l,r) + LFE ch, ~640 kbps | RUS
Звук: 48 kHz, AC3 Dolby Digital, 3/2 (L,C,R,l,r) + LFE ch, ~640 kbps | GER
Субтитры: Немецкие

x264 [info]: frame I:678 Avg QP:11.93 size:230431
x264 [info]: frame P:25604 Avg QP:14.60 size:120156
x264 [info]: frame B:94135 Avg QP:16.55 size: 50765
___________________________________________________________
General
Unique ID : 175050664797756660569129385388199975632 (0x83B1881E453712A696C8C99BF48D1AD0)
Complete name : F:Pikovaya.dama.Zazerkalye.2019.2019.BDRip.1080p.ExKinoRay.mkv
Format : Matroska
Format version : Version 2
File size : 8.21 GiB
Duration : 1 h 23 min
Overall bit rate : 14.1 Mb/s
Movie name : Пиковая дама: Зазеркалье 2019 from ExKinoRay
Encoded date : UTC 2019-11-08 12:13:41
Writing application : mkvmerge v5.6.0 ('Kenya Kane') built on May 27 2012 16:44:04
Writing library : libebml v1.2.3 + libmatroska v1.3.0

Video
ID : 1
Format : AVC
Format/Info : Advanced Video Codec
Format profile : High@L4.1
Format settings, CABAC : Yes
Format settings, ReFrames : 5 frames
Codec ID : V_MPEG4/ISO/AVC
Duration : 1 h 23 min
Bit rate : 12.8 Mb/s
Width : 1 920 pixels
Height : 804 pixels
Display aspect ratio : 2.40:1
Frame rate mode : Constant
Frame rate : 24.000 FPS
Color space : YUV
Chroma subsampling : 4:2:0
Bit depth : 8 bits
Scan type : Progressive
Bits/(Pixel*Frame) : 0.345
Stream size : 7.30 GiB (89%)
Title : Enigma
Writing library : x264 core 152 r2851 ba24899
Encoding settings : cabac=1 / ref=5 / deblock=1:-2:-2 / analyse=0x3:0x113 / me=umh / subme=11 / psy=1 / psy_rd=1.05:0.05 / mixed_ref=1 / me_range=32 / chroma_me=1 / trellis=2 / 8x8dct=1 / cqm=0 / deadzone=21,11 / fast_pskip=0 / chroma_qp_offset=-3 / threads=12 / lookahead_threads=3 / sliced_threads=0 / nr=0 / decimate=0 / interlaced=0 / bluray_compat=0 / constrained_intra=0 / bframes=12 / b_pyramid=2 / b_adapt=2 / b_bias=0 / direct=3 / weightb=1 / open_gop=0 / weightp=2 / keyint=240 / keyint_min=24 / scenecut=40 / intra_refresh=0 / rc=2pass / mbtree=0 / bitrate=12800 / ratetol=1.0 / qcomp=0.65 / qpmin=0 / qpmax=51 / qpstep=4 / cplxblur=20.0 / qblur=0.5 / ip_ratio=1.40 / pb_ratio=1.30 / aq=1:1.00
Language : English
Default : Yes
Forced : No
Color range : Limited
Color primaries : BT.709
Transfer characteristics : BT.709
Matrix coefficients : BT.709

Audio #1
ID : 2
Format : AC-3
Format/Info : Audio Coding 3
Mode extension : CM (complete main)
Format settings, Endianness : Big
Codec ID : A_AC3
Duration : 1 h 23 min
Bit rate mode : Constant
Bit rate : 640 kb/s
Channel(s) : 6 channels
Channel positions : Front: L C R, Side: L R, LFE
Sampling rate : 48.0 kHz
Frame rate : 31.250 FPS (1536 spf)
Compression mode : Lossy
Stream size : 383 MiB (5%)
Title : AC3, Blu-Ray
Language : Russian
Default : Yes
Forced : No

Audio #2
ID : 3
Format : AC-3
Format/Info : Audio Coding 3
Mode extension : CM (complete main)
Format settings, Endianness : Big
Codec ID : A_AC3
Duration : 1 h 23 min
Bit rate mode : Constant
Bit rate : 640 kb/s
Channel(s) : 6 channels
Channel positions : Front: L C R, Side: L R, LFE
Sampling rate : 48.0 kHz
Frame rate : 31.250 FPS (1536 spf)
Compression mode : Lossy
Stream size : 383 MiB (5%)
Language : German
Default : No
Forced : No

Text
ID : 4
Format : UTF-8
Codec ID : S_TEXT/UTF8
Codec ID/Info : UTF-8 Plain Text
Title : Full
Language : German
Default : No
Forced : No

Menu
00:00:00.000 : :Chapter 01
00:07:24.458 : :Chapter 02
00:11:44.958 : :Chapter 03
00:18:47.083 : :Chapter 04
00:25:13.833 : :Chapter 05
00:31:57.041 : :Chapter 06
00:43:59.541 : :Chapter 07
00:49:51.875 : :Chapter 08
00:55:04.500 : :Chapter 09
01:04:10.250 : :Chapter 10
01:13:30.375 : :Chapter 11
01:19:19.416 : :Chapter 12
01:23:20.416 : :Chapter 13
01:23:36.957 : :Chapter 14






Релиз от:

Автор релиза:
Последний раз редактировалось kisa1980 08 ноя 2019, 19:09, всего редактировалось 3 раз(а).
Причина: Поглощённый торрент
КУБКИ

СТАЖ

МЕДАЛИ
Награды:61

За активную помощь проекту (1) Лучший по количеству кубков (12) За отличные раздачи и качество (24) За подробное оформление раздач (1) За отличные комментарии (6) Почётный форумчанин (4) Верный Сид (10)

Аватара пользователя
Korsarka
Уважаемый Релизёр-Корсар
  • Торрент
Для скачивания торрента необходимо зарегистрироваться или войти на трекер.

Сообщение kwazar312 » 24 июн 2019, 08:37

Уважаемая Korsarka, спасибо за новинку. Из описания к фильму так и веет таинственностью, надо посмотреть, тем более фильм российский.
:hi: :bugaga2: :bajan: :victory:
КУБКИ

СТАЖ

МЕДАЛИ
Награды:129

За активную помощь проекту (12) Лучший по количеству кубков (40) За отличные раздачи и качество (2) За отличные комментарии (22) Почётный форумчанин (3) Верный Сид (44) За участие в конкурсах/играх (6)

Аватара пользователя
kwazar312
Заслуженный Корсар-Вип


Вернуться в Наше современное кино (HD Video)



Uptime по данным Ping-Admin.Ru - сервиса мониторинга доступности сайтов
Рейтинг@Mail.ru