logo
Международный русскоязычный
торрент-трекер
Menu
Doublon
Поделиться с друзьями: 
Голосуй за Корсар и получи 400 дублонов
Рейтинг торрент трекеров - UpTracker.ru

Песнь о Маншук / Мәншүк туралы ән (1969, драма, военный, DVDRip)

Сообщение Шкипер » 05 ноя 2018, 18:30

Название: Песнь о Маншук
Оригинальное название: Мәншүк туралы ән
Год выпуска: 1969
Жанр: Драма, военный
Режиссёр: Мажит Бегалин
В ролях: Наталья Аринбасарова, Виктор Авдюшко, Иван Дмитриев, Нуржуман Ихтымбаев, Олеся Иванова, Каукен Кенжетаев, Никита Михалков, Иван Рыжов, Юрий Саранцев, Фарида Шарипова

О фильме: О подвиге Героя Советского Союза Маншук Маметовой. В фильме воссоздано прошлое и показан один день боевой жизни Маншук и ее товарищей, принявших неравный бой с немецкими танками. В этом же бою погибла храбрая Маншук...


Выпущено: Казахская ССР, СССР, Казахфильм
Перевод: Профессиональный дублированный
Продолжительность: 01:13:59

Видео кодек: XviD
Качество: DVDRip
Видео: XviD, 704x528, 25.000 fps, 2259 kbps avg
Битрейт аудио: АС3, 2 ch, 192 Кбит/с (RUS, Kazakh)


Автор:
Группа:

Аудио 1: АС3, 2 ch, 192 Кбит/с (Русский)
Аудио 2: АС3, 2 ch, 192 Кбит/с (Kazakh)
General
Complete name : D:\Manshuk.DVDRip by ExKinoRay.avi
Format : AVI
Format/Info : Audio Video Interleave
File size : 1.37 GiB
Duration : 1 h 13 min
Overall bit rate : 2 657 kb/s
Writing application : VirtualDubMod 1.5.10.3 | http://www.virtualdub-fr.org || (build 2550/release)
Writing library : VirtualDubMod build 2550/release

Video
ID : 0
Format : MPEG-4 Visual
Format profile : Advanced Simple@L5
Format settings : BVOP1 / Custom Matrix
Format settings, BVOP : 1
Format settings, QPel : No
Format settings, GMC : No warppoints
Format settings, Matrix : Custom
Codec ID : XVID
Codec ID/Hint : XviD
Duration : 1 h 13 min
Bit rate : 2 259 kb/s
Width : 704 pixels
Height : 528 pixels
Display aspect ratio : 4:3
Frame rate : 25.000 FPS
Color space : YUV
Chroma subsampling : 4:2:0
Bit depth : 8 bits
Scan type : Progressive
Compression mode : Lossy
Bits/(Pixel*Frame) : 0.243
Stream size : 1.17 GiB (85%)
Writing library : XviD 73

Audio #1
ID : 1
Format : AC-3
Format/Info : Audio Coding 3
Format settings, Endianness : Big
Codec ID : 2000
Duration : 1 h 13 min
Bit rate mode : Constant
Bit rate : 192 kb/s
Channel(s) : 2 channels
Channel positions : Front: L R
Sampling rate : 48.0 kHz
Frame rate : 31.250 FPS (1536 SPF)
Bit depth : 16 bits
Compression mode : Lossy
Stream size : 102 MiB (7%)
Alignment : Split accross interleaves
Interleave, duration : 40 ms (1.00 video frame)
Interleave, preload duratio : 500 ms
Service kind : Complete Main

Audio #2
ID : 2
Format : AC-3
Format/Info : Audio Coding 3
Format settings, Endianness : Big
Codec ID : 2000
Duration : 1 h 13 min
Bit rate mode : Constant
Bit rate : 192 kb/s
Channel(s) : 2 channels
Channel positions : Front: L R
Sampling rate : 48.0 kHz
Frame rate : 31.250 FPS (1536 SPF)
Bit depth : 16 bits
Compression mode : Lossy
Stream size : 102 MiB (7%)
Alignment : Split accross interleaves
Interleave, duration : 40 ms (1.00 video frame)
Interleave, preload duratio : 500 ms
Service kind : Complete Main
КУБКИ

СТАЖ

МЕДАЛИ
Награды:6

За отличные раздачи и качество (2)

Аватара пользователя
Шкипер
Опытный Релизёр-Корсар
  • Торрент
Для скачивания торрента необходимо зарегистрироваться или войти на трекер.

Вернуться в Кино времён СССР



Uptime по данным Ping-Admin.Ru - сервиса мониторинга доступности сайтов
Рейтинг@Mail.ru Голосуйте за наш сайт в каталоге Rubo.Ru