logo
Международный русскоязычный
торрент-трекер
Menu
Doublon
Поделиться с друзьями: 
Голосуй за Корсар и получи 400 дублонов
Рейтинг торрент трекеров - UpTracker.ru

Песнь о Маншук / Мәншүк туралы ән (1969, драма, военный, DVDRip)

Сообщение Шкипер » 04 ноя 2018, 21:51

Название: Песнь о Маншук
Оригинальное название: Мәншүк туралы ән
Год выпуска: 1969
Жанр: Драма, военный
Режиссёр: Мажит Бегалин
В ролях: Наталья Аринбасарова, Виктор Авдюшко, Иван Дмитриев, Нуржуман Ихтымбаев, Олеся Иванова, Каукен Кенжетаев, Никита Михалков, Иван Рыжов, Юрий Саранцев, Фарида Шарипова

О фильме: О подвиге Героя Советского Союза Маншук Маметовой. В фильме воссоздано прошлое и показан один день боевой жизни Маншук и ее товарищей, принявших неравный бой с немецкими танками. В этом же бою погибла храбрая Маншук...


Выпущено: Казахская ССР, СССР, Казахфильм
Перевод: Профессиональный дублированный
Продолжительность: 01:13:59

Видео кодек: XviD
Качество: DVDRip
Видео: XviD, 640x480, 25.000 fps, 1269 kbps avg
Битрейт аудио: MP3, 2 ch, 128 Кбит/с


Автор:
Группа:

General
Complete name : D:\Торренты\Рип от Шкипер\Песнь о Маншук\Manshuk.DVDRip by ExKinoRay.avi
Format : AVI
Format/Info : Audio Video Interleave
File size : 744 MiB
Duration : 1 h 13 min
Overall bit rate : 1 407 kb/s
Writing application : VirtualDubMod 1.5.10.3 | http://www.virtualdub-fr.org || (build 2550/release)
Writing library : VirtualDubMod build 2550/release

Video
ID : 0
Format : MPEG-4 Visual
Format profile : Advanced Simple@L5
Format settings : BVOP1 / Custom Matrix
Format settings, BVOP : 1
Format settings, QPel : No
Format settings, GMC : No warppoints
Format settings, Matrix : Custom
Codec ID : XVID
Codec ID/Hint : XviD
Duration : 1 h 13 min
Bit rate : 1 269 kb/s
Width : 640 pixels
Height : 480 pixels
Display aspect ratio : 4:3
Frame rate : 25.000 FPS
Color space : YUV
Chroma subsampling : 4:2:0
Bit depth : 8 bits
Scan type : Progressive
Compression mode : Lossy
Bits/(Pixel*Frame) : 0.165
Stream size : 671 MiB (90%)
Writing library : XviD 73

Audio
ID : 1
Format : MPEG Audio
Format version : Version 1
Format profile : Layer 3
Codec ID : 55
Codec ID/Hint : MP3
Duration : 1 h 13 min
Bit rate mode : Constant
Bit rate : 128 kb/s
Channel(s) : 2 channels
Sampling rate : 48.0 kHz
Compression mode : Lossy
Stream size : 67.7 MiB (9%)
Alignment : Aligned on interleaves
Interleave, duration : 40 ms (1.00 video frame)
Interleave, preload duratio : 504 ms
Writing library : LAME3.99r
Encoding settings : -m s -V 4 -q 2 -lowpass 17 -b 128

КУБКИ

СТАЖ

МЕДАЛИ
Награды:6

За отличные раздачи и качество (2)

Аватара пользователя
Шкипер
Опытный Релизёр-Корсар
  • Торрент
Для скачивания торрента необходимо зарегистрироваться или войти на трекер.

Сообщение Бользен » 05 ноя 2018, 08:44

Благодарю.
КУБКИ

СТАЖ

МЕДАЛИ
Награды:5

Лучший по количеству кубков (1) За отличные комментарии (1) Верный Сид (3)

Аватара пользователя
СССР
Бользен
Уважаемый Корсар


Вернуться в Кино времён СССР



Uptime по данным Ping-Admin.Ru - сервиса мониторинга доступности сайтов
Рейтинг@Mail.ru Голосуйте за наш сайт в каталоге Rubo.Ru