logo
Международный русскоязычный
торрент-трекер
Menu
Doublon
Поделиться с друзьями: 
Голосуй за Корсар и получи 400 дублонов
Рейтинг торрент трекеров - UpTracker.ru

Первая ласточка (1975, Комедия, DVDRip-AVC) - KORSAR

Сообщение filbi1976 » 14 май 2017, 07:54

Первая ласточка
Год выпуска: 1975
Жанр: Комедия
Продолжительность: 01:12:50
Режиссер: Нана Мчедлидзе
В ролях: Давид Абашидзе, Васо Надарая, Ипполит Хвичия, Анзор Херхадзе, Гурам Лордкипанидзе, Дмитрий Джаияни, Василий Чхаидзе, Ия Нинидзе, Лаура Вартанян, Темур Тавадзе, Джумбер Жвания, Борис Пайчадзе, Гурам Пирцхалава, Дудухана Церодзе, Баадур Цуладзе

Описание: Это было в начале века, когда провинциалы Грузии еще не знали о футболе. Однажды, увидев как взрослые носятся за мячом по полю, Хвича удивился, но, разгадав смысл игры, решил во что бы то ни стало создать свою команду. Вскоре его команда "Первая ласточка" стала неизменным победителем всех соревнований. Однако в город прибыло английское судно - и англичане в скором времени нанесли "Ласточке" первое и серьезное поражение...

Доп. информация: Сценаристы: Нана Мчедлидзе, Леван Челидзе
Оператор: Георгий Челидзе
Композитор: Джансуг Кахидзе
Художник: Дмитрий Такайшвили
Производство: Грузия-фильм
Спец. приз жюри, "Золотой приз" за лучшее исполнение мужской роли (Д.Абашидзе) МКФ в Тегеране-75;
Большая премия города Оберхаузена, диплом жюри ФИПРЕССИ МКФ спортивного кино в Оберхаузене-77;
Почетный диплом МКФ цветного кино в Барселоне-76;
Золотая медаль VI ВКФ спортивных фильмов в Минске-77;
Премия за лучшую кинокомедию, Первая премия за мужскую роль (Д.Абашидзе) ВКФ-76 во Фрунзе;
Главный приз (поделил с фильмом "Как доброго молодца женили") КФ грузинских фильмов в Батуми-76.


Файл
Кодек: х264
Качество: DVDRip-AVC
Видео: MPEG-4 AVC, 710x416@1009x416, 25 fps, 3500 Кбит/с
Звук: AC3, 6 ch, 448 Кбит/с, AC3, 1 ch, 320 Кбит/с


    x264 [info]: frame I:686 Avg QP:16.59 size: 84897
    x264 [info]: frame P:34838 Avg QP:18.18 size: 37801
    x264 [info]: frame B:73747 Avg QP:22.12 size: 7273
Общее
Уникальный идентификатор : 222883955007066076775203968542819044138 (0xA7ADE368190A608A9CB628158D514B2A)
Полное имя : D:\Первая ласточка_1975-DVDRip-AVC.mkv
Формат : Matroska
Версия формата : Version 2
Размер файла : 2,17 Гбайт
Продолжительность : 1 ч. 12 м.
Общий поток : 4269 Кбит/сек
Дата кодирования : UTC 2017-05-14 04:55:51
Программа кодирования : mkvmerge v5.8.0 ('No Sleep / Pillow') built on Sep 2 2012 15:37:04
Библиотека кодирования : libebml v1.2.3 + libmatroska v1.3.0

Видео
Идентификатор : 1
Формат : AVC
Формат/Информация : Advanced Video Codec
Профиль формата : High@L4.1
Параметр CABAC формата : Да
Параметр ReFrames формата : 12 кадров
Идентификатор кодека : V_MPEG4/ISO/AVC
Продолжительность : 1 ч. 12 м.
Битрейт : 3500 Кбит/сек
Ширина : 710 пикселей
Высота : 416 пикселей
Соотношение сторон : 2,40:1
Соотношение сторон в оригинале : 2,40:1
Режим частоты кадров : Постоянный
Частота кадров : 25,000 кадров/сек
Цветовое пространство : YUV
Субдискретизация насыщенности : 4:2:0
Битовая глубина : 8 бит
Тип развёртки : Прогрессивная
Бит/(Пиксели*Кадры) : 0.474
Размер потока : 1,74 Гбайт (80%)
Заголовок : korsar.tv
Библиотека кодирования : x264 core 148 r2744kMod b97ae06
Настройки программы : cabac=1 / ref=12 / deblock=1:-2:-2 / analyse=0x3:0x133 / me=umh / subme=10 / psy=1 / fade_compensate=0.00 / psy_rd=1.05:0.10 / mixed_ref=1 / me_range=36 / chroma_me=1 / trellis=2 / 8x8dct=1 / cqm=0 / deadzone=21,11 / fast_pskip=0 / chroma_qp_offset=-3 / threads=12 / lookahead_threads=2 / sliced_threads=0 / nr=0 / decimate=0 / interlaced=0 / bluray_compat=0 / constrained_intra=0 / bframes=8 / b_pyramid=2 / b_adapt=2 / b_bias=0 / direct=3 / weightb=1 / open_gop=0 / weightp=2 / keyint=250 / keyint_min=25 / scenecut=40 / intra_refresh=0 / rc_lookahead=40 / rc=2pass / mbtree=1 / bitrate=3500 / ratetol=1.0 / qcomp=0.63 / qpmin=0 / qpmax=39 / qpstep=4 / cplxblur=20.0 / qblur=0.5 / ip_ratio=1.25 / aq=2:0.80
Язык : English
Default : Да
Forced : Нет
Цветовой диапазон : Limited
Основные цвета : BT.601 PAL
Характеристики трансфера : BT.470 System B, BT.470 System G
Коэффициенты матрицы : BT.601

Аудио #1
Идентификатор : 2
Формат : AC-3
Формат/Информация : Audio Coding 3
Расширение режима : CM (complete main)
Параметр Endianness формата : Big
Идентификатор кодека : A_AC3
Продолжительность : 1 ч. 12 м.
Вид битрейта : Постоянный
Битрейт : 448 Кбит/сек
Каналы : 6 каналов
Расположение каналов : Front: L C R, Side: L R, LFE
Частота : 48,0 КГц
Частота кадров : 31,250 кадров/сек (1536 spf)
Битовая глубина : 16 бит
Метод сжатия : С потерями
Размер потока : 233 Мбайт (10%)
Язык : Russian
Default : Да
Forced : Нет

Аудио #2
Идентификатор : 3
Формат : AC-3
Формат/Информация : Audio Coding 3
Расширение режима : CM (complete main)
Параметр Endianness формата : Big
Идентификатор кодека : A_AC3
Продолжительность : 1 ч. 12 м.
Вид битрейта : Постоянный
Битрейт : 320 Кбит/сек
Каналы : 1 канал
Расположение каналов : Front: C
Частота : 48,0 КГц
Частота кадров : 31,250 кадров/сек (1536 spf)
Битовая глубина : 16 бит
Метод сжатия : С потерями
Размер потока : 167 Мбайт (7%)
Язык : Russian
Default : Нет
Forced : Нет

КУБКИ

СТАЖ

МЕДАЛИ
Награды:69

За помощь проекту (1) За отличные раздачи и качество (50) За отличные комментарии (1) Верный Сид (14) За участие в конкурсах/играх (1)

Аватара пользователя
Тортуга
filbi1976
Администратор-Корсар
Раздачи группы KORSAR разрешено перезаливать спустя сутки после публикации
  • Торрент
Для скачивания торрента необходимо зарегистрироваться или войти на трекер.

Сообщение verybigpapa » 14 май 2017, 08:18

Классный фильм! Жемчужина грузинского кино! Уважаемый filbi1976, огромное спасибо за выполненную просьбу. :hi: :respect:
Улыбайтесь, господа! Улыбайтесь!
КУБКИ

СТАЖ

МЕДАЛИ
Награды:40

За помощь проекту (15) Лучший по количеству кубков (9) За отличные комментарии (5) Верный Сид (11)

Аватара пользователя
СССР
verybigpapa
Заслуженный Корсар-Вип

Сообщение Бользен » 14 май 2017, 22:57

Благодарю.
КУБКИ

СТАЖ

МЕДАЛИ
Награды:5

Лучший по количеству кубков (1) За отличные комментарии (1) Верный Сид (3)

Аватара пользователя
СССР
Бользен
Уважаемый Корсар

Сообщение bagrad » 15 май 2017, 00:37

Спасибо большое Сергей! :hi: Одним словом Грузия-фильм :victory:
Dum spíro, spéro!
КУБКИ

СТАЖ

МЕДАЛИ
Награды:19

За помощь проекту (2) Лучший по количеству кубков (9) За отличные комментарии (1) Верный Сид (7)

Аватара пользователя
СССР
bagrad
Заслуженный Корсар-Вип

Сообщение filbi1976 » 15 май 2017, 06:47

Всем пожалуйста! :hi:
КУБКИ

СТАЖ

МЕДАЛИ
Награды:69

За помощь проекту (1) За отличные раздачи и качество (50) За отличные комментарии (1) Верный Сид (14) За участие в конкурсах/играх (1)

Аватара пользователя
Тортуга
filbi1976
Администратор-Корсар

Сообщение mister.hats » 16 май 2017, 20:57

Спасибо Серега. :-drinks:

Тот кто не с нами, тот против нас
КУБКИ

СТАЖ

МЕДАЛИ
Награды:59

За помощь проекту (7) Лучший по количеству кубков (15) За отличные раздачи и качество (24) За подробное оформление раздач (2) За отличные комментарии (1) Верный Сид (10)

Аватара пользователя
Тортуга
mister.hats
Заслуженный Корсар-Вип

Сообщение Бользен » 24 май 2017, 12:29

На раздаче.
КУБКИ

СТАЖ

МЕДАЛИ
Награды:5

Лучший по количеству кубков (1) За отличные комментарии (1) Верный Сид (3)

Аватара пользователя
СССР
Бользен
Уважаемый Корсар

Сообщение kisa1980 » 24 май 2017, 13:18

filbi1976 Спасибо.
КУБКИ

СТАЖ

МЕДАЛИ
Награды:53

За помощь проекту (7) Лучший по количеству кубков (3) За отличные раздачи и качество (17) За подробное оформление раздач (4) За отличные комментарии (4) Почётный форумчанин (3) Верный Сид (11) За участие в конкурсах/играх (2)

Аватара пользователя
Тортуга
kisa1980
Главный помощник Администратора-Корсар

Сообщение al1ksandr » 25 май 2017, 21:02

Отличный фильм! Очень светлый, трогательный и добрый фильм с хорошим юмором. Надо видеть своими глазами, как мужчины, бегут из дома, забывая о женах и детях. Увлеченные игрой, они забывают о работе, их страсть — это лекарство от эмоционального истощения. Актеры, играющие главные роли, заряжают зрителя положительными эмоциями, думаю, этот фильм понравится как взрослой аудитории, так и любителям футбола. Спасибо за релиз, filbi 1976!
КУБКИ

СТАЖ

МЕДАЛИ
Награды:47

За помощь проекту (1) Лучший по количеству кубков (14) За отличные комментарии (8) Почётный форумчанин (21) Верный Сид (1) За участие в конкурсах/играх (2)

Аватара пользователя
СССР
al1ksandr
Заслуженный Корсар-Вип

Сообщение Spartacus » 31 окт 2018, 17:31

Большое спасибо!!!
КУБКИ

СТАЖ

МЕДАЛИ
Награды:4

Верный Сид (4)

Аватара пользователя
Spartacus
Опытный Корсар


Вернуться в Кино времён СССР



Uptime по данным Ping-Admin.Ru - сервиса мониторинга доступности сайтов
Рейтинг@Mail.ru Голосуйте за наш сайт в каталоге Rubo.Ru