logo
Международный русскоязычный
торрент-трекер
Menu
Поделиться с друзьями: 
Голосуй за Корсар и получи 500 дублонов
Рейтинг торрент трекеров - UpTracker.ru

Пепел и алмаз / Popiol i diament (1958, драма, мелодрама, военный, BDRip 1080p)

Сообщение msltel » 29 июн 2020, 14:40

Название: Пепел и алмаз
Оригинальное название: Popiol i diament
Год выпуска: 1958
Страна: Польша
Жанр: драма, мелодрама, военный
Продолжительность: 01:42:43
Перевод: дублированный, профессиональный многоголосый
Режиссер: Анджей Вайда
В ролях: Збигнев Цибульский, Эва Кшижевска, Вацлав Застшежиньский, Адам Павликовский, Богумил Кобеля, Ян Чечерский, Станислав Мильский, Артур Млодницкий, Халина Квятковска, Игнацы Маховский, Збигнев Сковроньский, Барбара Крафтувна, Александр Севрук, Зофия Червиньска, Виктор Гротович, Ирена Орзецкая, Мечислав Лоза, Тадеуш Калиновский, Гражина Станишевска, Фердинанд Матысик

О фильме: Освобождённая от немцев Польша. Май 1945 года. Бывшие бойцы Армии Крайовой, боровшиеся против немецкой оккупации, а теперь «про́клятые солдаты» Мачек и его командир Анджей, знакомые ещё по Варшавскому восстанию, получают задание убить секретаря обкома ПРП Щуку. По ошибке они расстреливают рабочих цементного завода около придорожной часовни. И теперь герои вынуждены скрываться в своей стране... Фильм снят по мотивам повести Ежи Анджеевского.



Качество: BDRip 1080p
Формат: MKV
Видео: MPEG-4 AVC, 19.7 Mбит/с, 1764x1080, 23.976 кадр/с
Аудио 1: русский, AC3, 192 kbps, 2 ch, 48 kHz [дублированный]
Аудио 2: русский, AC3, 192 kbps, 2 ch, 48 kHz [закадровый многоголосый]
Аудио 3: польский, DTS, 1509 kbps, 6 ch, 48 kHz [оригинал]
Субтитры: русские
Главы/чаптеры

Общее
Уникальный идентификатор : 222156680170188083227793393097360152650 (0xA721D1FD1E833C318DFB126C6EF2184A)
Полное имя : D:\Video\Пепел и алмаз.1958.BDRip 1080p msltel.mkv
Формат : Matroska
Версия формата : Version 4
Размер файла : 15,5 Гбайт
Продолжительность : 1 ч. 42 м.
Общий поток : 21,5 Мбит/сек
Название фильма : Rip msltel
Дата кодирования : UTC 2020-06-29 10:27:03
Программа кодирования : mkvmerge v8.2.0 ('World of Adventure') 64bit
Библиотека кодирования : libebml v1.3.1 + libmatroska v1.4.2

Видео
Идентификатор : 1
Формат : AVC
Формат/Информация : Advanced Video Codec
Профиль формата : High@L4.1
Настройки формата : CABAC / 4 Ref Frames
Параметр CABAC формата : Да
Параметр RefFrames формата : 4 кадра
Идентификатор кодека : V_MPEG4/ISO/AVC
Продолжительность : 1 ч. 42 м.
Битрейт : 19,7 Мбит/сек
Ширина : 1 764 пикселя
Высота : 1 080 пикселей
Соотношение сторон : 16:10
Режим частоты кадров : Постоянный
Частота кадров : 23,976 (24000/1001) кадра/сек
Цветовое пространство : YUV
Субдискретизация насыщенности : 4:2:0
Битовая глубина : 8 бит
Тип развёртки : Прогрессивная
Бит/(Пиксели*Кадры) : 0.431
Размер потока : 14,1 Гбайт (91%)
Библиотека кодирования : x264 core 159 r2991 1771b55
Настройки программы : cabac=1 / ref=4 / deblock=1:-2:-2 / analyse=0x3:0x113 / me=umh / subme=11 / psy=1 / psy_rd=1.00:0.15 / mixed_ref=1 / me_range=32 / chroma_me=1 / trellis=2 / 8x8dct=1 / cqm=0 / deadzone=21,11 / fast_pskip=0 / chroma_qp_offset=-3 / threads=6 / lookahead_threads=1 / sliced_threads=0 / nr=0 / decimate=1 / interlaced=0 / bluray_compat=0 / constrained_intra=0 / bframes=6 / b_pyramid=2 / b_adapt=2 / b_bias=0 / direct=1 / weightb=1 / open_gop=0 / weightp=2 / keyint=230 / keyint_min=23 / scenecut=40 / intra_refresh=0 / rc_lookahead=40 / rc=crf / mbtree=1 / crf=15.1 / qcomp=0.60 / qpmin=0 / qpmax=69 / qpstep=4 / vbv_maxrate=50000 / vbv_bufsize=62500 / crf_max=0.0 / nal_hrd=none / filler=0 / ip_ratio=1.40 / aq=1:1.00
Язык : Polish
Default : Да
Forced : Нет

Аудио #1
Идентификатор : 2
Формат : AC-3
Формат/Информация : Audio Coding 3
Коммерческое название : Dolby Digital
Идентификатор кодека : A_AC3
Продолжительность : 1 ч. 42 м.
Вид битрейта : Постоянный
Битрейт : 192 Кбит/сек
Каналы : 2 канала
Channel layout : L R
Частота : 48,0 КГц
Частота кадров : 31,250 кадров/сек (1536 SPF)
Метод сжатия : С потерями
Размер потока : 141 Мбайт (1%)
Заголовок : DUB
Язык : Russian
Service kind : Complete Main
Default : Да
Forced : Нет

Аудио #2
Идентификатор : 3
Формат : AC-3
Формат/Информация : Audio Coding 3
Коммерческое название : Dolby Digital
Идентификатор кодека : A_AC3
Продолжительность : 1 ч. 42 м.
Вид битрейта : Постоянный
Битрейт : 192 Кбит/сек
Каналы : 2 канала
Channel layout : L R
Частота : 48,0 КГц
Частота кадров : 31,250 кадров/сек (1536 SPF)
Метод сжатия : С потерями
Размер потока : 141 Мбайт (1%)
Заголовок : MVO
Язык : Russian
Service kind : Complete Main
Default : Нет
Forced : Нет

Аудио #3
Идентификатор : 4
Формат : DTS
Формат/Информация : Digital Theater Systems
Идентификатор кодека : A_DTS
Продолжительность : 1 ч. 42 м.
Вид битрейта : Постоянный
Битрейт : 1 509 Кбит/сек
Каналы : 6 каналов
Channel layout : C L R Ls Rs LFE
Частота : 48,0 КГц
Частота кадров : 93,750 кадра/сек (512 SPF)
Битовая глубина : 16 бит
Метод сжатия : С потерями
Размер потока : 1,08 Гбайт (7%)
Заголовок : original
Язык : Polish
Default : Нет
Forced : Нет

Текст
Идентификатор : 5
Формат : UTF-8
Идентификатор кодека : S_TEXT/UTF8
Идентификатор кодека/Информация : UTF-8 Plain Text
Продолжительность : 1 ч. 42 м.
Битрейт : 55 бит/сек
Count of elements : 832
Размер потока : 41,8 Кбайт (0%)
Заголовок : русские
Язык : Russian
Default : Нет
Forced : Нет

Меню
00:00:00.000 : :Chapter 1
00:13:12.416 : :Chapter 2
00:15:11.160 : :Chapter 3
00:30:20.401 : :Chapter 4
00:37:12.939 : :Chapter 5
00:46:21.277 : :Chapter 6
00:51:18.950 : :Chapter 7
00:57:28.361 : :Chapter 8
01:07:50.441 : :Chapter 9
01:26:00.321 : :Chapter 10
01:32:00.348 : :Chapter 11
01:37:46.402 : :Chapter 12
01:42:40.946 : :Chapter 13


"И не совершил там многих чудес по неверию их." (Евангелие от Матфея)
КУБКИ

СТАЖ

МЕДАЛИ
Награды:43

За отличные раздачи и качество (22) За подробное оформление раздач (1) За отличные комментарии (1) Почётный форумчанин (1) Верный Сид (15)

Аватара пользователя
Russia
msltel
Уважаемый Релизёр-Корсар
  • Торрент
Для скачивания торрента необходимо зарегистрироваться или войти на трекер.

Сообщение kwazar312 » 29 июн 2020, 14:55

Фильм снят по мотивам романа Ежи Анджеевского «Пепел и алмаз» (Popiól i diament, 1948).
Збигнев Цибульский играл в своей повседневной одежде и тёмных очках, что не соответствовало историческим реалиям 1945 года.
Фильм снимали в Тшебнице и во Вроцлаве.
У «Пепла и алмаза» возникли серьёзные цензурные трудности. Ответственных за идеологию смущало то, что антикоммунист в исполнении Цибульского, даже убив партийного функционера, не теряет романтического ореола. На кинофестиваль в Венеции фильм попал по инициативе мелкого чиновника вопреки решению партийного руководства. Хотя ленту показали вне конкурса, она была замечена и получила мировое признание. К показу в СССР фильм был допущен только в 1965 году.
Последний фильм военной трилогии Анджея Вайды о Второй мировой войне, куда также входят картины «Поколение» и «Канал».
Уважаемый msltel,спасибо за хороший исторический фильм.
:hi: :10 balov: :respect:
КУБКИ

СТАЖ

МЕДАЛИ
Награды:148

Пожизненный VIP+ (3) За активную помощь проекту (14) Лучший по количеству кубков (46) За отличные раздачи и качество (3) За отличные комментарии (26) Почётный форумчанин (1) Верный Сид (49) За участие в конкурсах/играх (6)

Аватара пользователя
kwazar312
Заслуженный Корсар-Вип+

Сообщение msltel » 29 июн 2020, 16:08

kwazar312, :hi:
"И не совершил там многих чудес по неверию их." (Евангелие от Матфея)
КУБКИ

СТАЖ

МЕДАЛИ
Награды:43

За отличные раздачи и качество (22) За подробное оформление раздач (1) За отличные комментарии (1) Почётный форумчанин (1) Верный Сид (15)

Аватара пользователя
Russia
msltel
Уважаемый Релизёр-Корсар


Вернуться в Классика зарубежного кино (фильмы до 1980 года / HD Video)



Uptime по данным Ping-Admin.Ru - сервиса мониторинга доступности сайтов
Рейтинг@Mail.ru