logo
Международный русскоязычный
торрент-трекер
Menu
Поделиться с друзьями: 
Голосуй за Корсар и получай 1000 дублонов каждый день
Рейтинг торрент трекеров - UpTracker.ru

Пеле: Рождение легенды / Pelé: Birth of a Legend (2016, драма, биография, спорт, HDRip) - ExKinoRay | KПK | Лицензия

Сообщение Шкипер » 16 сен 2020, 08:53

Название: Пеле: Рождение легенды
Оригинальное название: Pelé: Birth of a Legend
Год выпуска: 2016
Жанр: драма, биография, спорт
Режиссёр: Джефф Цимбалист, Майкл Цимбалист
В ролях: Винсент Д`Онофрио, Родриго Санторо, Диего Бонета, Колм Мини, Сеу Жоржи, Андре Маттос, Свен Холмберг

О фильме: Биографическая драма расскажет о закулисье спорта, в частности о жизни величайшего игрока в истории футбола – Пеле....


Выпущено: США, Imagine Entertainment, Seine Pictures , Zohar International
Перевод: Профессиональный дублированный - Лицензия R5
Продолжительность: 01:47:06

Видео кодек: x264
Качество: HDRip (КПК)
Видео: MPEG-4 AVC, 640x264, 23.976 fps, 600 kbps avg
Битрейт аудио: (AAC LC, 2 ch, 96 Кбит/с)


Автор:
Группа:

General
Complete name : D:\Пеле. Рождение легенды.2016.Lic.(640х).HDRip-КПК.by.ExKinoRay & Shkiper.mp4
Format : MPEG-4
Format profile : Base Media
Codec ID : isom (isom)
File size : 610 MiB
Duration : 1 h 47 min
Overall bit rate mode : Variable
Overall bit rate : 796 kb/s
Encoded date : UTC 2020-09-15 15:55:01
Tagged date : UTC 2020-09-15 15:55:01

Video
ID : 1
Format : AVC
Format/Info : Advanced Video Codec
Format profile : High@L4.1
Format settings : CABAC / 10 Ref Frames
Format settings, CABAC : Yes
Format settings, Reference : 10 frames
Codec ID : avc1
Codec ID/Info : Advanced Video Coding
Duration : 1 h 47 min
Source duration : 21 min 11 s
Bit rate : 600 kb/s
Maximum bit rate : 1 933 kb/s
Width : 640 pixels
Height : 264 pixels
Display aspect ratio : 2.40:1
Frame rate mode : Constant
Frame rate : 23.976 FPS
Color space : YUV
Chroma subsampling : 4:2:0
Bit depth : 8 bits
Scan type : Progressive
Bits/(Pixel*Frame) : 0.148
Stream size : 459 MiB (75%)
Source stream size : 459 MiB (75%)
Writing library : x264 core 146 r2538 121396c
Encoding settings : cabac=1 / ref=10 / deblock=1:-3:-3 / analyse=0x3:0x113 / me=umh / subme=11 / psy=1 / psy_rd=1.00:0.00 / mixed_ref=1 / me_range=48 / chroma_me=1 / trellis=2 / 8x8dct=1 / cqm=0 / deadzone=21,11 / fast_pskip=0 / chroma_qp_offset=-2 / threads=3 / lookahead_threads=1 / sliced_threads=0 / nr=0 / decimate=0 / interlaced=0 / bluray_compat=0 / constrained_intra=0 / bframes=10 / b_pyramid=2 / b_adapt=2 / b_bias=0 / direct=3 / weightb=1 / open_gop=0 / weightp=2 / keyint=240 / keyint_min=23 / scenecut=40 / intra_refresh=0 / rc_lookahead=40 / rc=2pass / mbtree=0 / bitrate=600 / ratetol=1.0 / qcomp=0.60 / qpmin=0 / qpmax=69 / qpstep=4 / cplxblur=20.0 / qblur=0.5 / vbv_maxrate=14000 / vbv_bufsize=14000 / nal_hrd=none / filler=0 / ip_ratio=1.40 / pb_ratio=1.30 / aq=1:1.00
Encoded date : UTC 2020-09-15 15:27:54
Tagged date : UTC 2020-09-15 15:55:25
mdhd_Duration : 6425763
Codec configuration box : avcC

Audio #1
ID : 2
Format : AAC LC
Format/Info : Advanced Audio Codec Low Complexity
Codec ID : mp4a-40-2
Duration : 1 h 47 min
Bit rate mode : Variable
Bit rate : 96.0 kb/s
Maximum bit rate : 99.7 kb/s
Channel(s) : 2 channels
Channel layout : L R
Sampling rate : 48.0 kHz
Frame rate : 46.875 FPS (1024 SPF)
Compression mode : Lossy
Stream size : 73.5 MiB (12%)
Title : Dub [License]
Language : Russian
Encoded date : UTC 2020-09-15 15:30:00
Tagged date : UTC 2020-09-15 15:55:25

Audio #2
ID : 3
Format : AAC LC
Format/Info : Advanced Audio Codec Low Complexity
Codec ID : mp4a-40-2
Duration : 1 h 47 min
Bit rate mode : Variable
Bit rate : 96.0 kb/s
Maximum bit rate : 106 kb/s
Channel(s) : 2 channels
Channel layout : L R
Sampling rate : 48.0 kHz
Frame rate : 46.875 FPS (1024 SPF)
Compression mode : Lossy
Stream size : 73.5 MiB (12%)
Title : Original
Language : English
Encoded date : UTC 2020-09-15 15:41:52
Tagged date : UTC 2020-09-15 15:55:25
КУБКИ

СТАЖ

МЕДАЛИ
Награды:22

За отличные раздачи и качество (15) За подробное оформление раздач (1) Почётный форумчанин (2)

Аватара пользователя
Шкипер
Опытный Релизёр-Корсар
  • Торрент
Для скачивания торрента необходимо зарегистрироваться или войти на трекер.

Вернуться в Зарубежное кино (КПК Video)



Рейтинг@Mail.ru