logo
Международный русскоязычный
торрент-трекер
Menu
Doublon
Поделиться с друзьями: 
Голосуй за Корсар и получи 500 дублонов
Рейтинг торрент трекеров - UpTracker.ru

Парный удар / Боковые удары / Sidekicks (1992, боевик, DVDRip-AVC) - KORSAR

Сообщение Cthulhu » 19 дек 2019, 19:41

Название: Парный удар / Боковые удары
Оригинальное название: Sidekicks
Год выхода: 1992
Жанр: боевик
Режиссер: Аарон Норрис
В ролях: Чак Норрис, Бо Бриджес, Джонатан Брэндис, Мако, Джулия Никсон-Соул, Джо Пископо, Дэника МакКеллар, Джон Бьюкэнэн, Ричард Молл, Геррит Грэм, Деннис Бёркли

Описание: Бэрри не пользовался авторитетом у одноклассников. Во-первых, он не был физически сильным из-за астмы, мучавшей его страшными приступами. Во-вторых, духом тоже был слабоват, не всегда решаясь ответить обидчику. А в-третьих, он был мечтателем, становясь в своих мечтах первым помощником Чака Норриса, борца за справедливость.



Страна: США
Производство: Gallery Films, Vision PDG
Продолжительность: 01:41:05
Перевод: Профессиональный двухголосый, авторский одноголосый

Формат: MKV
Качество: DVDRip-AVC
Видео: MPEG-4 AVC, 706x478@706x538, 23.976 fps, 2389 Кбит/с
Аудио 1: Русский, AC3, 2 ch, 256 Кбит/с DVO (ТВ6)
Аудио 2: Русский, AC3, 2 ch, 192 Кбит/с AVO (Гаврилов)
Аудио 3: Английский, AC3, 2 ch, 224 Кбит/с
Cубтитры: нет
Навигация по главам: есть

x264 [info]: frame I:1331 Avg QP:16.91 size: 60901
x264 [info]: frame P:32202 Avg QP:18.75 size: 28257
x264 [info]: frame B:111887 Avg QP:20.82 size: 7333
x264 [info]: consecutive B-frames: 2.3% 1.3% 6.4% 25.0% 27.5% 36.1% 0.9% 0.4% 0.0%

General
Unique ID : 326191080737848851677047129517892636796 (0xF5661DF39D33EB6D64B9186FEDC1107C)
Complete name : S:\FILMS\Парный удар - Sidekicks (1992) DVDRip-AVC - KORSAR.mkv
Format : Matroska
Format version : Version 4 / Version 2
File size : 2.16 GiB
Duration : 1 h 41 min
Overall bit rate : 3 064 kb/s
Movie name : Sidekicks (1992)_rip_by_Cthulhu
Encoded date : UTC 2019-12-19 16:15:40
Writing application : mkvmerge v37.0.0 ('Leave It') 64-bit
Writing library : libebml v1.3.9 + libmatroska v1.5.2
Cover : Yes
Attachments : cover5.png

Video
ID : 1
Format : AVC
Format/Info : Advanced Video Codec
Format profile : High@L4.1
Format settings : CABAC / 16 Ref Frames
Format settings, CABAC : Yes
Format settings, ReFrames : 16 frames
Codec ID : V_MPEG4/ISO/AVC
Duration : 1 h 41 min
Bit rate : 2 389 kb/s
Width : 706 pixels
Height : 478 pixels
Display aspect ratio : 4:3
Original display aspect rat : 4:3
Frame rate mode : Constant
Frame rate : 23.976 (24000/1001) FPS
Color space : YUV
Chroma subsampling : 4:2:0
Bit depth : 8 bits
Scan type : Progressive
Bits/(Pixel*Frame) : 0.295
Stream size : 1.69 GiB (78%)
Writing library : x264 core 152 r2851kMod ba24899
Encoding settings : cabac=1 / ref=16 / deblock=1:-1:-1 / analyse=0x3:0x133 / me=umh / subme=11 / psy=1 / fade_compensate=0.00 / psy_rd=1.00:0.03 / mixed_ref=1 / me_range=48 / chroma_me=1 / trellis=2 / 8x8dct=1 / cqm=0 / deadzone=21,11 / fast_pskip=0 / chroma_qp_offset=-3 / threads=15 / lookahead_threads=2 / sliced_threads=0 / nr=0 / decimate=1 / interlaced=0 / bluray_compat=0 / constrained_intra=0 / bframes=8 / b_pyramid=2 / b_adapt=2 / b_bias=0 / direct=1 / weightb=1 / open_gop=0 / weightp=2 / keyint=240 / keyint_min=23 / scenecut=40 / intra_refresh=0 / rc_lookahead=60 / rc=crf / mbtree=0 / crf=17.5000 / qcomp=0.62 / qpmin=0 / qpmax=39 / qpstep=4 / vbv_maxrate=50000 / vbv_bufsize=62500 / crf_max=0.0 / nal_hrd=none / filler=0 / ip_ratio=1.40 / pb_ratio=1.30 / aq=2:1.00
Language : English
Default : Yes
Forced : No
Color range : Limited
Color primaries : BT.601 NTSC
Transfer characteristics : BT.601
Matrix coefficients : BT.601

Audio #1
ID : 2
Format : AC-3
Format/Info : Audio Coding 3
Commercial name : Dolby Digital
Codec ID : A_AC3
Duration : 1 h 41 min
Bit rate mode : Constant
Bit rate : 256 kb/s
Channel(s) : 2 channels
Channel layout : L R
Sampling rate : 48.0 kHz
Frame rate : 31.250 FPS (1536 SPF)
Bit depth : 16 bits
Compression mode : Lossy
Stream size : 185 MiB (8%)
Title : DVO ТВ6
Language : Russian
Service kind : Complete Main
Default : Yes
Forced : No

Audio #2
ID : 3
Format : AC-3
Format/Info : Audio Coding 3
Commercial name : Dolby Digital
Codec ID : A_AC3
Duration : 1 h 41 min
Bit rate mode : Constant
Bit rate : 192 kb/s
Channel(s) : 2 channels
Channel layout : L R
Sampling rate : 48.0 kHz
Frame rate : 31.250 FPS (1536 SPF)
Bit depth : 16 bits
Compression mode : Lossy
Stream size : 139 MiB (6%)
Title : AVO Гаврилов
Language : Russian
Service kind : Complete Main
Default : No
Forced : No

Audio #3
ID : 4
Format : AC-3
Format/Info : Audio Coding 3
Commercial name : Dolby Digital
Codec ID : A_AC3
Duration : 1 h 41 min
Bit rate mode : Constant
Bit rate : 224 kb/s
Channel(s) : 2 channels
Channel layout : L R
Sampling rate : 48.0 kHz
Frame rate : 31.250 FPS (1536 SPF)
Bit depth : 16 bits
Compression mode : Lossy
Stream size : 162 MiB (7%)
Language : English
Service kind : Complete Main
Default : No
Forced : No

Menu
00:00:00.000 : en:Chapter 1
00:12:51.680 : en:Chapter 2
00:27:20.080 : en:Chapter 3
00:39:30.680 : en:Chapter 4
00:52:36.920 : en:Chapter 5
01:01:12.760 : en:Chapter 6
01:11:37.280 : en:Chapter 7
01:29:10.280 : en:Chapter 8


Просьба отключить блокировщики рекламы на странице скриншотов по адресу: http://3.lostpic.net/, этим Вы поможете существованию проекта. Заранее спасибо!
КУБКИ

СТАЖ

МЕДАЛИ
Награды:97

За активную помощь проекту (18) Лучший по количеству кубков (1) За отличные раздачи и качество (52) За отличные комментарии (6) Почётный форумчанин (2) Верный Сид (17)

Аватара пользователя
СССР
Cthulhu
Помощник Администратора-Корсар
Раздачи группы KORSAR разрешено перезаливать спустя 7 дней после публикации и с обязательным добавлением банера
  • Торрент
Для скачивания торрента необходимо зарегистрироваться или войти на трекер.

Сообщение Ethan » 09 янв 2020, 04:25

Большое спасибо Вам за выполненный заказ, фильм из детства, в лучшем качестве на сегодня!
СТАЖ

МЕДАЛИ


Аватара пользователя
Ethan
Опытный Корсар

Сообщение poletov » 26 мар 2020, 09:30

Отличный фильм,когда0то мной виденный,помню приятные воспоминания от его просмотра :good: :super:
КУБКИ

СТАЖ

МЕДАЛИ
Награды:14

За отличные раздачи и качество (1) За отличные комментарии (10) Почётный форумчанин (2) Верный Сид (1)

Аватара пользователя
Russia
poletov
Заслуженный Корсар


Вернуться в Зарубежное кино (1991-2000)



Uptime по данным Ping-Admin.Ru - сервиса мониторинга доступности сайтов
Рейтинг@Mail.ru