logo
Международный русскоязычный
торрент-трекер
Menu
"Бунт на корабле", за скачанные торрент-файлы дублоны не снимаются. Возможность оплачена пользователем filbi1976.
Doublon
Поделиться с друзьями: 
Голосуй за Корсар и получи 500 дублонов
Рейтинг торрент трекеров - UpTracker.ru

Отверженные / Les Miserables (1958, Драма, исторический, экранизация, Blu-Ray Remux 1080p)

Сообщение al1ksandr » 12 авг 2019, 20:56

Название: Отверженные
Оригинальное название: Les Miserables
Год выпуска: 1958
Жанр: Драма, исторический, экранизация
Режиссер: Жан-Поль Ле Шануа
В ролях: Жан Габен, Даниэль Делорм, Бернар Блие, Серж Реджани, Бурвиль, Жани Эспозито, Мартина Аве, Беатрис Альтариба, Эльфрида Флорин, Джимми Урбен, Жан Мюра, Люсьен Бару, Сильвия Монфор, Жюльенна Пароли, Фернан Леду, Эдмон Ардиссон, Жан Озенн, Бернар Мюссон, Мадлен Барбюле, Герхард Бинерт, Рене Флёр, Габриэль Фонтан, Поль Вийе, Кристиан Фуркад, Жерар Даррьё, Пьер Табар, Марк Эйро, Анри Гэган, Луи Арбессье, Лаура Пайет, Жан Д'Ид, Гарри Хиндемит, Робер Базиль, Эмиль Женевуа, Пьер Монкорбье, Маг-Авриль, Жюльен Маффре, Жан Бланшер, Жак Марен, Анри Куте

О фильме: Экранизация одноименного романа Виктора Гюго. Жан Вальжан отбыл на каторге 20 лет за кражу корки хлеба, а затем, после встречи с обезоруживающей добротой священника, у которого он крадет подсвечники, посвящает себя и всю свою жизнь творению добра. Его антагониста и главного врага, безжалостного инспектора Жавера, считающего, что преступниками — становятся раз и навсегда, великолепно сыграл Бернар Блие. Мерзкого негодяя Тенардье отлично воплотил на экране Бурвиль, ну а несчастную Козетту, дочь самой близкой Жану Вальжану женщины, в которой одной теперь он только и видит истинный смысл своей жизни — Даниэль Делорм. Монументальная экранизация популярнейшего романа Виктора Гюго с участием множества звезд, и, прежде всего, — блистательное исполнение Жаном Габеном роли Жана Вальжана — сделали этот фильм неувядаемым бестселлером для уже нескольких поколений зрителей.



Выпущено: Франция, Германия (ГДР), Италия, P.A.C., Société Nouvelle Pathé Cinéma, Serena, Deutsche Film AG
Продолжительность: 03:08:55
Перевод: Дублированный, профессиональный многоголосый

Качество: Blu-Ray Remux 1080p
Видео: MPEG-4 AVC, 27.0 Мбит/с, 1920x1080, 23.976 Кадр/с
Аудио: Русский (АС3, 2 ch, 192 Кбит/с), французский (FLAC, 1 ch, 267 Кбит/с)
Субтитры: Русские, английские

Koenig

Видео: Les.Miserables.1958.1080p.BluRay.REMUX.AVC.FLAC.1.0-EPSiLON
Аудио #1: АС3, 2 ch, 192 Кбит/с | Дублированный (Мосфильм)
Аудио #2: АС3, 2 ch, 192 Кбит/с | Профессиональный многоголосый (Film Prestige)
Аудио #3: FLAC, 1 ch, 267 Кбит/с | Французский

В дорожке советского дубляжа есть несколько вставок многоголоски, поскольку версия изданная на блюрее сильно отличается от кинопрокатной советской версии.
Фильм дублирован на киностудии "Мосфильм" в 1960 году.
Роли исполняли и дублировали: Борис Оленин, Олег Голубицкий, Антонина Кончакова, Сергей Цейц, Владимир Кенигсон, Мария Фигнер, Зоя Толбузина, Владимир Балашов, Ирина Карташёва, Мария Виноградова, Семён Самодур, Тамара Дмитриева, Михаил Трояновский
Текст от автора: Алексей Консовский

* Фильм снят по мотивам романа Виктора Гюго «Отверженные» (Les Misérables, 1862).




Общее
Уникальный идентификатор : 42256961884192234816321020416963637108 (0x1FCA651342FC1346CADC75657BC3EF74)
Полное имя : Les.Miserables.1958.1080p.BDREMUX.mkv
Формат : Matroska
Версия формата : Version 4
Размер файла : 36,5 Гбайт
Продолжительность : 3 ч. 8 м.
Режим общего битрейта : Переменный
Общий поток : 27,6 Мбит/сек
Название фильма : Les.Miserables.1958.1080p.BDREMUX by Koenig
Дата кодирования : UTC 2019-08-11 18:01:26
Программа кодирования : mkvmerge v28.2.0 ('The Awakening') 32-bit
Библиотека кодирования : libebml v1.3.6 + libmatroska v1.4.9
Обложка : Yes
Attachments : cover.jpg / cover.jpg

Видео
Идентификатор : 1
Формат : AVC
Формат/Информация : Advanced Video Codec
Профиль формата : High@L4.1
Настройки формата : CABAC / 4 Ref Frames
Параметр CABAC формата : Да
Параметр RefFrames формата : 4 кадра
Параметр GOP формата : M=3, N=24
Идентификатор кодека : V_MPEG4/ISO/AVC
Продолжительность : 3 ч. 8 м.
Вид битрейта : Переменный
Битрейт : 27,0 Мбит/сек
Максимальный битрейт : 32,0 Мбит/сек
Ширина : 1920 пикселей
Высота : 1080 пикселей
Соотношение сторон : 16:9
Режим частоты кадров : Постоянный
Частота кадров : 23,976 (24000/1001) кадра/сек
Стандарт вещания : NTSC
Цветовое пространство : YUV
Субдискретизация насыщенности : 4:2:0
Битовая глубина : 8 бит
Тип развёртки : Прогрессивная
Бит/(Пиксели*Кадры) : 0.543
Размер потока : 35,6 Гбайт (98%)
Заголовок : Les.Miserables.1958.1080p.BluRay.REMUX.AVC.FLAC.1.0-EPSiLON
Язык : French
Default : Да
Forced : Нет
Цветовой диапазон : Limited
Основные цвета : BT.709
Характеристики трансфера : BT.709
Коэффициенты матрицы : BT.709

Аудио #1
Идентификатор : 2
Формат : AC-3
Формат/Информация : Audio Coding 3
Коммерческое название : Dolby Digital
Идентификатор кодека : A_AC3
Продолжительность : 3 ч. 8 м.
Вид битрейта : Постоянный
Битрейт : 192 Кбит/сек
Каналы : 2 канала
Channel layout : L R
Частота : 48,0 КГц
Частота кадров : 31,250 кадров/сек (1536 SPF)
Битовая глубина : 16 бит
Метод сжатия : С потерями
Размер потока : 259 Мбайт (1%)
Заголовок : DUB - Мосфильм
Язык : Russian
ServiceKind/String : Complete Main
Default : Нет
Forced : Нет

Аудио #2
Идентификатор : 3
Формат : AC-3
Формат/Информация : Audio Coding 3
Коммерческое название : Dolby Digital
Идентификатор кодека : A_AC3
Продолжительность : 3 ч. 8 м.
Вид битрейта : Постоянный
Битрейт : 192 Кбит/сек
Каналы : 2 канала
Channel layout : L R
Частота : 48,0 КГц
Частота кадров : 31,250 кадров/сек (1536 SPF)
Битовая глубина : 16 бит
Метод сжатия : С потерями
Размер потока : 259 Мбайт (1%)
Заголовок : MVO - Film Prestige
Язык : Russian
ServiceKind/String : Complete Main
Default : Нет
Forced : Нет

Аудио #3
Идентификатор : 4
Формат : FLAC
Формат/Информация : Free Lossless Audio Codec
Идентификатор кодека : A_FLAC
Продолжительность : 3 ч. 8 м.
Вид битрейта : Переменный
Битрейт : 267 Кбит/сек
Каналы : 1 канал
Channel layout : C
Частота : 48,0 КГц
Частота кадров : 11,719 кадров/сек (4096 SPF)
Битовая глубина : 16 бит
Метод сжатия : Без потерь
Размер потока : 360 Мбайт (1%)
Заголовок : Original
Библиотека кодирования : libFLAC 1.2.1 (UTC 2007-09-17)
Язык : French
Default : Да
Forced : Нет

Текст #1
Идентификатор : 5
Формат : UTF-8
Идентификатор кодека : S_TEXT/UTF8
Идентификатор кодека/Информация : UTF-8 Plain Text
Продолжительность : 3 ч. 6 м.
Битрейт : 106 бит/сек
ElementCount : 2605
Размер потока : 145 Кбайт (0%)
Язык : Russian
Default : Да
Forced : Нет

Текст #2
Идентификатор : 6
Формат : UTF-8
Идентификатор кодека : S_TEXT/UTF8
Идентификатор кодека/Информация : UTF-8 Plain Text
Продолжительность : 3 ч. 3 м.
Битрейт : 60 бит/сек
ElementCount : 2331
Размер потока : 81,7 Кбайт (0%)
Язык : English
Default : Нет
Forced : Нет

Меню
00:00:00.000 : en:Chapter 01
00:19:45.267 : en:Chapter 02
00:40:47.779 : en:Chapter 03
00:54:24.845 : en:Chapter 04
01:10:46.993 : en:Chapter 05
01:28:54.329 : en:Chapter 06
01:30:55.283 : en:Chapter 07
01:46:49.069 : en:Chapter 08
02:19:22.479 : en:Chapter 09
02:57:00.819 : en:Chapter 10
КУБКИ

СТАЖ

МЕДАЛИ
Награды:65

За помощь проекту (2) Лучший по количеству кубков (15) За отличные раздачи и качество (4) За отличные комментарии (13) Почётный форумчанин (26) Верный Сид (1) За участие в конкурсах/играх (2)

Аватара пользователя
СССР
al1ksandr
Главный Модератор-Корсар
  • Торрент
Для скачивания торрента необходимо зарегистрироваться или войти на трекер.

Сообщение filbi1976 » 13 авг 2019, 19:41

Кёник попал.
Посмотреть товар в профиле пользователя

Нажмите на изображение, чтобы увидеть в полный размер  
1 шт.
Нажмите на изображение, чтобы увидеть в полный размер  
1 шт.
Нажмите на изображение, чтобы увидеть в полный размер  
1 шт.
Нажмите на изображение, чтобы увидеть в полный размер  
1 шт.
Нажмите на изображение, чтобы увидеть в полный размер  
1 шт.
Нажмите на изображение, чтобы увидеть в полный размер  
1 шт.
Нажмите на изображение, чтобы увидеть в полный размер  
1 шт.
Нажмите на изображение, чтобы увидеть в полный размер  
1 шт.
Нажмите на изображение, чтобы увидеть в полный размер  
1 шт.
Нажмите на изображение, чтобы увидеть в полный размер  
1 шт.
Нажмите на изображение, чтобы увидеть в полный размер  
1 шт.
Нажмите на изображение, чтобы увидеть в полный размер  
1 шт.
Нажмите на изображение, чтобы увидеть в полный размер  
1 шт.
Нажмите на изображение, чтобы увидеть в полный размер  
1 шт.
Нажмите на изображение, чтобы увидеть в полный размер  
1 шт.
КУБКИ

СТАЖ

МЕДАЛИ
Награды:118

За помощь проекту (3) За отличные раздачи и качество (74) За отличные комментарии (6) Почётный форумчанин (5) Верный Сид (27) За участие в конкурсах/играх (1)

Аватара пользователя
Тортуга
filbi1976
Администратор-Корсар


Вернуться в Классика зарубежного кино (фильмы до 1980 года / HD Video)



Uptime по данным Ping-Admin.Ru - сервиса мониторинга доступности сайтов
Рейтинг@Mail.ru Голосуйте за наш сайт в каталоге Rubo.Ru