logo
Международный русскоязычный
торрент-трекер
Menu

Doublon
Поделиться с друзьями: 
Голосуй за Корсар и получи 150 дублонов
Рейтинг торрент трекеров - UpTracker.ru

Отвали! / Cops and Robbersons (1994, Комедия, криминал, WEB-DL 1080p) - KORSAR

Сообщение mzma » 11 июл 2018, 04:38

Название: Отвали! / Фараоны и Робберсоны / Казаки-разбойники
Оригинальное название: Cops and Robbersons
Год выпуска: 1994
Выпущено: США, Channel Productions, TriStar Pictures
Жанр: Комедия, криминал
Режиссер: Майкл Ритчи
В ролях: Чеви Чейз, Джек Пэланс, Дайэнн Уист, Роберт Дави, Дэвид Бэрри Грэй, Джейсон Джеймс Рихтер, Фэй Мастерсон, Мико Хьюз, Ричард Романус, Сэл Ланди

О фильме: Суперполицейский Джейк Стоун получает очередное задание — схватить опасного преступника, находящегося в розыске. Для этого ему необходимо установить аппаратуру слежения в частном доме, где проживает типичная американская семья Робберсонов. Джейк приступает к своей обычной работе, но встречает на своем пути неожиданное препятствие в лице старшего Робберсона, который оказывается горячим поклонником полицейских сериалов. Всю жизнь этот великовозрастный балбес мечтал принять участие в настоящем расследовании. Он с радостью готов помочь служителям правопорядка, хотя его об этом и не просили. Теперь Джейк должен не только поймать преступника, но и обезвредить своего новоиспеченного напарника…



Продолжительность: 01:32:32
Перевод: Профессиональный многоголосый, профессиональный двухголосый, авторский
Субтитры: Английские
Навигация по главам: Есть

Качество: WEB-DL 1080p
Видео: MPEG-4 AVC, 13,8 Мбит/сек, 1920x1080, 23,976 кадра/сек
Аудио #1: AC3, 2 ch, 192 Кбит/сек | Русский, профессиональный (многоголосый закадровый) GoodVideo, Видеосервис
Аудио #2: AC3, 2 ch, 192 Кбит/сек | Русский, профессиональный (многоголосый закадровый) Red Media
Аудио #3: AC3, 2 ch, 192 Кбит/сек | Русский, профессиональный (двухголосый закадровый) SDI Media
Аудио #4: AC3, 2 ch, 192 Кбит/сек | Русский, авторский (одноголосый закадровый) Андрей Гаврилов
Аудио #5: AC3, 2 ch, 192 Кбит/сек | Русский, авторский (одноголосый закадровый) Сергей Визгунов
Аудио #6: EAC3, 2 ch, 224 Кбит/сек | Английский, оригинал

Сборка:


Общее
Уникальный идентификатор : 182323388220941118854673385392546253639 (0x892A351132ED8B9D8B36F0CE92000B47)
Полное имя : Отвали!.1994.WEB-DL.1080p.mkv
Формат : Matroska
Версия формата : Version 2
Размер файла : 9,86 Гбайт
Продолжительность : 1 ч. 32 м.
Режим общего битрейта : Переменный
Общий поток : 15,3 Мбит/сек
Дата кодирования : UTC 2018-07-12 04:59:37
Программа кодирования : mkvmerge v5.8.0 ('No Sleep / Pillow') built on Sep 2 2012 15:37:04
Библиотека кодирования : libebml v1.2.3 + libmatroska v1.3.0

Видео
Идентификатор : 1
Формат : AVC
Формат/Информация : Advanced Video Codec
Профиль формата : High@L4
Настройки формата : CABAC / 4 Ref Frames
Параметр CABAC формата : Да
Параметр RefFrames формата : 4 кадра
Идентификатор кодека : V_MPEG4/ISO/AVC
Продолжительность : 1 ч. 32 м.
Вид битрейта : Переменный
Битрейт : 13,8 Мбит/сек
Максимальный битрейт : 15,0 Мбит/сек
Ширина : 1920 пикселей
Высота : 1080 пикселей
Соотношение сторон : 16:9
Режим частоты кадров : Постоянный
Частота кадров : 23,976 (24000/1001) кадра/сек
Цветовое пространство : YUV
Субдискретизация насыщенности : 4:2:0
Битовая глубина : 8 бит
Тип развёртки : Прогрессивная
Бит/(Пиксели*Кадры) : 0.277
Размер потока : 8,90 Гбайт (90%)
Библиотека кодирования : x264 core 148 r2623 d5b2374
Настройки программы : cabac=1 / ref=4 / deblock=1:-1:-1 / analyse=0x3:0x133 / me=umh / subme=9 / psy=1 / psy_rd=1.00:0.15 / mixed_ref=1 / me_range=24 / chroma_me=1 / trellis=2 / 8x8dct=1 / cqm=0 / deadzone=21,11 / fast_pskip=1 / chroma_qp_offset=-3 / threads=34 / lookahead_threads=5 / sliced_threads=0 / nr=150 / decimate=1 / interlaced=0 / bluray_compat=0 / constrained_intra=0 / bframes=8 / b_pyramid=2 / b_adapt=2 / b_bias=0 / direct=3 / weightb=1 / open_gop=0 / weightp=2 / keyint=120 / keyint_min=61 / scenecut=0 / intra_refresh=0 / rc_lookahead=120 / rc=crf / mbtree=1 / crf=18.0 / qcomp=0.60 / qpmin=0 / qpmax=69 / qpstep=4 / vbv_maxrate=15000 / vbv_bufsize=31250 / crf_max=0.0 / nal_hrd=vbr / filler=0 / ip_ratio=1.40 / aq=3:1.00
Язык : English
Default : Да
Forced : Нет
Цветовой диапазон : Limited
Основные цвета : BT.709
Характеристики трансфера : BT.709
Коэффициенты матрицы : BT.709

Аудио #1
Идентификатор : 2
Формат : AC-3
Формат/Информация : Audio Coding 3
Идентификатор кодека : A_AC3
Продолжительность : 1 ч. 32 м.
Вид битрейта : Постоянный
Битрейт : 192 Кбит/сек
Каналы : 2 канала
Расположение каналов : Front: L R
Частота : 48,0 КГц
Частота кадров : 31,250 кадров/сек (1536 SPF)
Битовая глубина : 16 бит
Метод сжатия : С потерями
Размер потока : 127 Мбайт (1%)
Заголовок : MVO | GoodVideo, Видеосервис
Язык : Russian
По умолчанию : Да
Принудительно : Нет

Аудио #2
Идентификатор : 3
Формат : AC-3
Формат/Информация : Audio Coding 3
Идентификатор кодека : A_AC3
Продолжительность : 1 ч. 32 м.
Вид битрейта : Постоянный
Битрейт : 192 Кбит/сек
Каналы : 2 канала
Расположение каналов : Front: L R
Частота : 48,0 КГц
Частота кадров : 31,250 кадров/сек (1536 SPF)
Битовая глубина : 16 бит
Метод сжатия : С потерями
Размер потока : 127 Мбайт (1%)
Заголовок : MVO | RedMedia
Язык : Russian
По умолчанию : Нет
Принудительно : Нет

Аудио #3
Идентификатор : 4
Формат : AC-3
Формат/Информация : Audio Coding 3
Идентификатор кодека : A_AC3
Продолжительность : 1 ч. 32 м.
Вид битрейта : Постоянный
Битрейт : 192 Кбит/сек
Каналы : 2 канала
Расположение каналов : Front: L R
Частота : 48,0 КГц
Частота кадров : 31,250 кадров/сек (1536 SPF)
Битовая глубина : 16 бит
Метод сжатия : С потерями
Размер потока : 127 Мбайт (1%)
Заголовок : DVO | SDI Media
Язык : Russian
По умолчанию : Нет
Принудительно : Нет

Аудио #4
Идентификатор : 5
Формат : AC-3
Формат/Информация : Audio Coding 3
Идентификатор кодека : A_AC3
Продолжительность : 1 ч. 32 м.
Вид битрейта : Постоянный
Битрейт : 192 Кбит/сек
Каналы : 2 канала
Расположение каналов : Front: L R
Частота : 48,0 КГц
Частота кадров : 31,250 кадров/сек (1536 SPF)
Битовая глубина : 16 бит
Метод сжатия : С потерями
Размер потока : 127 Мбайт (1%)
Заголовок : AVO | А. Гаврилов
Язык : Russian
По умолчанию : Нет
Принудительно : Нет

Аудио #5
Идентификатор : 6
Формат : AC-3
Формат/Информация : Audio Coding 3
Идентификатор кодека : A_AC3
Продолжительность : 1 ч. 32 м.
Вид битрейта : Постоянный
Битрейт : 192 Кбит/сек
Каналы : 2 канала
Расположение каналов : Front: L R
Частота : 48,0 КГц
Частота кадров : 31,250 кадров/сек (1536 SPF)
Битовая глубина : 16 бит
Метод сжатия : С потерями
Размер потока : 127 Мбайт (1%)
Заголовок : AVO | С. Визгунов
Язык : Russian
По умолчанию : Нет
Принудительно : Нет

Аудио #6
Идентификатор : 7
Формат : E-AC-3
Формат/Информация : Enhanced Audio Coding 3
Идентификатор кодека : A_EAC3
Продолжительность : 1 ч. 32 м.
Вид битрейта : Постоянный
Битрейт : 224 Кбит/сек
Каналы : 2 канала
Расположение каналов : Front: L R
Частота : 48,0 КГц
Частота кадров : 187,500 кадров/сек (256 SPF)
Метод сжатия : С потерями
Размер потока : 148 Мбайт (1%)
Заголовок : Original
Язык : English
По умолчанию : Нет
Принудительно : Нет

Текст #1
Идентификатор : 8
Формат : UTF-8
Идентификатор кодека : S_TEXT/UTF8
Идентификатор кодека/Информация : UTF-8 Plain Text
Заголовок : 1
Язык : English
По умолчанию : Нет
Принудительно : Нет

Текст #2
Идентификатор : 9
Формат : UTF-8
Идентификатор кодека : S_TEXT/UTF8
Идентификатор кодека/Информация : UTF-8 Plain Text
Заголовок : 2
Язык : English
По умолчанию : Нет
Принудительно : Нет

Текст #3
Идентификатор : 10
Формат : UTF-8
Идентификатор кодека : S_TEXT/UTF8
Идентификатор кодека/Информация : UTF-8 Plain Text
Заголовок : SDH
Язык : English
По умолчанию : Нет
Принудительно : Нет

Меню
00:00:00.000 : en:Start.
00:04:03.209 : en:Close to Perfect Family.
00:09:22.028 : en:Lt. Jake Stone.
00:14:06.812 : en:Garage Entryway.
00:15:57.957 : en:Cat Training.
00:19:10.899 : en:Came the Dawn.
00:23:30.575 : en:Red Light, Green Light.
00:26:11.336 : en:Talking too Much.
00:29:12.584 : en:Melon Practice.
00:34:06.677 : en:Idiot at Work.
00:38:36.447 : en:Two-Pack-a-Day Men.
00:40:40.271 : en:The Brothers Robberson.
00:48:35.746 : en:Mowing the Lawn.
00:49:27.831 : en:Putting the Bite on Jake.
00:50:49.046 : en:"One for My Baby".
00:52:37.120 : en:Family Breakfast.
00:56:38.895 : en:Jake Stone, Vampire Slayer.
00:58:41.484 : en:Tools of the Trade.
00:59:26.646 : en:Jake's Birthday.
01:02:32.832 : en:Grease Pit Arrest.
01:11:06.845 : en:Lutz Calls First.
01:14:09.778 : en:A Free Trip to Maui.
01:17:46.028 : en:Lutz Meets the Family.
01:18:34.226 : en:A Clue for Norman.
01:20:09.721 : en:Rescue Operation.
01:23:27.919 : en:Turning the Tables.
01:24:53.505 : en:Helen Takes Charge.
01:27:36.551 : en:One Happy Family.

• Исходник видео WEB-DL Amazon.
Аватара пользователя
mzma
Главный Модератор-Корсар
 
 

Награды: 67
За помощь проекту (2) Лучший по количеству кубков (6) За отличные раздачи и качество (37) За подробное оформление раздач (10) Верный Сид (10)
Раздачи группы KORSAR разрешено перезаливать спустя сутки после публикации
  • Торрент
Для скачивания торрента необходимо зарегистрироваться или войти на трекер.

Сообщение Каверин Саша » 11 июл 2018, 14:09

Спасибо! :hi:
Аватара пользователя
Каверин Саша
Корсар
 
 

Награды: 1
Верный Сид (1)

Сообщение mzma » 12 июл 2018, 08:23

Внимание, раздача обновлена - добавлена двухголосая озвучка от SDI Media.
Просьба перекачать раздачу, извиняюсь за неудобства.
Аватара пользователя
mzma
Главный Модератор-Корсар
 
 

Награды: 67
За помощь проекту (2) Лучший по количеству кубков (6) За отличные раздачи и качество (37) За подробное оформление раздач (10) Верный Сид (10)


Вернуться в Зарубежное кино (1991-2000 / HD Video)



cron
Uptime по данным Ping-Admin.Ru - сервиса мониторинга доступности сайтов
Рейтинг@Mail.ru