logo
Международный русскоязычный
торрент-трекер
Menu

Doublon
Поделиться с друзьями: 
Голосуй за Корсар и получи 400 дублонов
Рейтинг торрент трекеров - UpTracker.ru

Осторожно, бабушка! (1960, комедия, DVDRip-AVC) - KORSAR

Сообщение filbi1976 » 10 апр 2017, 19:55

Осторожно, бабушка!


Год выпуска: 1960
Жанр: комедия

Режиссер: Надежда Кошеверова

В ролях: Фаина Раневская, Ариадна Шенгелая, Людмила Маркелия, Светлана Харитонова, Нина Ургант, Юлиан Панич, Леонид Быков, Сергей Филиппов, Ролан Быков, Елизавета Уварова

Описание: Молодая директор Леночка отвечает за строительство нового Дома культуры. У неопытного руководителя всё валится из рук и выходит из-под контроля. Но у неё, к счастью, есть бабушка, которая собирает «старую гвардию» и выручает внучку из беды.

Выпущено: СССР
Продолжительность: 01:22:09
Перевод: не требуется

Файл
Кодек: х264
Качество: DVDRip-AVC
Видео: MPEG-4 AVC, 690x572@752x572, 25 fps, 3100 Кбит/с
Звук: AC3, 5 ch, 384 Кбит/с, AC3, 1 ch, 192 Кбит/с


  • x264 [info]: frame I:673 Avg QP:18.06 size: 72000
  • x264 [info]: frame P:28649 Avg QP:20.51 size: 33420
  • x264 [info]: frame B:94488 Avg QP:22.33 size: 9659
Общее
Уникальный идентификатор : 226773186264014412956106164031076595928 (0xAA9AED4FEFF5489A9319BE49A12E78D8)
Полное имя : D:\Осторожно бабушка_1961-DVDRip-AVC.mkv
Формат : Matroska
Версия формата : Version 2
Размер файла : 2,12 Гбайт
Продолжительность : 1 ч. 22 м.
Общий поток : 3677 Кбит/сек
Дата кодирования : UTC 2017-04-10 16:55:19
Программа кодирования : mkvmerge v5.8.0 ('No Sleep / Pillow') built on Sep 2 2012 15:37:04
Библиотека кодирования : libebml v1.2.3 + libmatroska v1.3.0

Видео
Идентификатор : 1
Формат : AVC
Формат/Информация : Advanced Video Codec
Профиль формата : High@L4.1
Параметр CABAC формата : Да
Параметр ReFrames формата : 15 кадров
Идентификатор кодека : V_MPEG4/ISO/AVC
Продолжительность : 1 ч. 22 м.
Битрейт : 3100 Кбит/сек
Ширина : 690 пикселей
Высота : 572 пикселя
Соотношение сторон : 4:3
Соотношение сторон в оригинале : 4:3
Режим частоты кадров : Постоянный
Частота кадров : 25,000 кадров/сек
Цветовое пространство : YUV
Субдискретизация насыщенности : 4:2:0
Битовая глубина : 8 бит
Тип развёртки : Прогрессивная
Бит/(Пиксели*Кадры) : 0.314
Размер потока : 1,75 Гбайт (82%)
Библиотека кодирования : x264 core 148 r2744kMod b97ae06
Настройки программы : cabac=1 / ref=15 / deblock=1:-2:-1 / analyse=0x3:0x133 / me=umh / subme=10 / psy=1 / fade_compensate=0.00 / psy_rd=1.05:0.10 / mixed_ref=1 / me_range=32 / chroma_me=1 / trellis=2 / 8x8dct=1 / cqm=0 / deadzone=21,11 / fast_pskip=0 / chroma_qp_offset=-3 / threads=12 / lookahead_threads=2 / sliced_threads=0 / nr=0 / decimate=0 / interlaced=0 / bluray_compat=0 / constrained_intra=0 / bframes=9 / b_pyramid=2 / b_adapt=2 / b_bias=0 / direct=3 / weightb=1 / open_gop=0 / weightp=2 / keyint=250 / keyint_min=25 / scenecut=40 / intra_refresh=0 / rc=2pass / mbtree=0 / bitrate=3100 / ratetol=1.0 / qcomp=0.63 / qpmin=0 / qpmax=39 / qpstep=4 / cplxblur=20.0 / qblur=0.5 / ip_ratio=1.25 / pb_ratio=1.30 / aq=1:1.00
Язык : English
Default : Да
Forced : Нет
Цветовой диапазон : Limited
Основные цвета : BT.601 PAL
Характеристики трансфера : BT.470 System B, BT.470 System G
Коэффициенты матрицы : BT.601

Аудио #1
Идентификатор : 2
Формат : AC-3
Формат/Информация : Audio Coding 3
Расширение режима : CM (complete main)
Параметр Endianness формата : Big
Идентификатор кодека : A_AC3
Продолжительность : 1 ч. 22 м.
Вид битрейта : Постоянный
Битрейт : 384 Кбит/сек
Каналы : 5 каналов
Расположение каналов : Front: L C R, Side: L R
Частота : 48,0 КГц
Частота кадров : 31,250 кадров/сек (1536 spf)
Битовая глубина : 16 бит
Метод сжатия : С потерями
Размер потока : 227 Мбайт (10%)
Язык : Russian
Default : Да
Forced : Нет

Аудио #2
Идентификатор : 3
Формат : AC-3
Формат/Информация : Audio Coding 3
Расширение режима : CM (complete main)
Параметр Endianness формата : Big
Идентификатор кодека : A_AC3
Продолжительность : 1 ч. 22 м.
Вид битрейта : Постоянный
Битрейт : 192 Кбит/сек
Каналы : 1 канал
Расположение каналов : Front: C
Частота : 48,0 КГц
Частота кадров : 31,250 кадров/сек (1536 spf)
Битовая глубина : 16 бит
Метод сжатия : С потерями
Размер потока : 113 Мбайт (5%)
Язык : Russian
Default : Нет
Forced : Нет

Аватара пользователя
filbi1976
Администратор-Корсар
 
 

Награды: 63
За помощь проекту (1) За отличные раздачи и качество (47) Верный Сид (12) За участие в конкурсах/играх (1)
Раздачи группы KORSAR разрешено перезаливать спустя сутки после публикации
  • Торрент
Для скачивания торрента необходимо зарегистрироваться или войти на трекер.

Сообщение bagrad » 10 апр 2017, 20:13

Отличная комедия! Спасибо Сергей! :-good: Фаина Раневская это просто не отшлифованный алмаз Советского кинематографа, ну и Ролан Быков здесь просто великолепен! :10 balov:
Dum spíro, spéro!
Аватара пользователя
bagrad
Заслуженный Корсар-Вип
 
 

Награды: 19
За помощь проекту (2) Лучший по количеству кубков (9) За отличные комментарии (1) Верный Сид (7)

Сообщение kwazar312 » 10 апр 2017, 20:45

Уважаемый filbi1976,большое спасибо за старую,добрую комедию со звездным составом актеров.
Аватара пользователя
kwazar312
Заслуженный Корсар-Вип
 
 

Награды: 63
За помощь проекту (7) Лучший по количеству кубков (16) За отличные комментарии (10) Верный Сид (25) За участие в конкурсах/играх (5)

Сообщение novkarambol » 10 апр 2017, 21:35

Огромное человеческое спасибо Вам уважаемый filbi1976, как всегда класс!!!
Аватара пользователя
novkarambol
Уважаемый Корсар
 
 

Награды: 11
За помощь проекту (3) Лучший по количеству кубков (2) Верный Сид (6)

Сообщение bortnikov » 10 апр 2017, 22:15

Какой великолепный фильм. Спасибо, Сергей.
Аватара пользователя
bortnikov
Уважаемый Корсар
 
 

Награды: 5
Лучший по количеству кубков (1) Верный Сид (4)

Сообщение mister.hats » 10 апр 2017, 22:20

Спасибо Серега :bajan: :friends: :-good:

Тот кто не с нами, тот против нас
Аватара пользователя
mister.hats
Заслуженный Корсар-Вип
 
 

Награды: 48
За помощь проекту (6) Лучший по количеству кубков (12) За отличные раздачи и качество (20) За подробное оформление раздач (1) За отличные комментарии (1) Верный Сид (8)

Сообщение verybigpapa » 10 апр 2017, 22:47

Великолепный актерский состав! :10 balov: Шикарная комедия! :respect: Огромное спасибо, уважаемый filbi1976! :hi:
Улыбайтесь, господа! Улыбайтесь!
Аватара пользователя
verybigpapa
Заслуженный Корсар-Вип
 
 

Награды: 37
За помощь проекту (14) Лучший по количеству кубков (9) За отличные комментарии (5) Верный Сид (9)

Сообщение filbi1976 » 11 апр 2017, 00:29

Всем пожалуйста! :hi:
Аватара пользователя
filbi1976
Администратор-Корсар
 
 

Награды: 63
За помощь проекту (1) За отличные раздачи и качество (47) Верный Сид (12) За участие в конкурсах/играх (1)

Сообщение Bars_St » 12 апр 2017, 21:54

Добрая, хорошая комедия... Спасибо!!! :hi:
Аватара пользователя
Bars_St
Заслуженный Корсар-Вип
 
 

Награды: 32
За помощь проекту (11) Лучший по количеству кубков (5) За отличные комментарии (7) Верный Сид (9)

Сообщение Korsar » 21 янв 2018, 05:26

Раздаю. :hi:

Боцман
Аватара пользователя
Korsar
Заслуженный Корсар-Вип+
 
 

Награды: 32
За помощь проекту (2) Лучший по количеству кубков (2) За отличные раздачи и качество (13) За подробное оформление раздач (1) За отличные комментарии (1) Верный Сид (11) За участие в конкурсах/играх (2)

Сообщение hodigor » 21 янв 2018, 09:06

Korsar писал(а):Раздаю. :hi:

Korsar, я вас от всей души искренне благодарю, вы мне очень помогли. Помогли мне скачать наконец то фильм. Я три недели не мог скачать этот замечательный художественный фильм Осторожно бабушка. Будьте счастливы всегда, я вам желаю мира и добра!
Аватара пользователя
hodigor
Заслуженный Корсар-Вип
 
 

Награды: 11
За помощь проекту (5) За отличные комментарии (4) Верный Сид (2)

Сообщение kwazar312 » 12 окт 2018, 14:56

Ох, ну и завораживает меня как этот фильм! Такой потрясающий лично для меня. Но неудивительно, так как, потому что именно здесь снимается Фаина Раневская.Комедия сама по себе получилась необычная и чуть-чуть завораживающая. Так как именно бабушка помогает внучке. Справится со всеми ситуациями, сложностями, какими-то проблемами. Конечно, в жизни это тоже можно встретить.Мне больше роль понравилась у Фаины Раневской. Как всегда она неотразима, весела. Я могу сказать она одна из многих актрис, которая непременно может сыграть так необычно и с юмором. В этой комедии я просто поражен ее работой! Роль таковой эгоистичной бабушки ей вправду удалась. Несмотря на то, что в нем играет столько не так важных актеров.
Фильм на раздаче,скачивайте,пожалуйста.Удачи.
Аватара пользователя
kwazar312
Заслуженный Корсар-Вип
 
 

Награды: 63
За помощь проекту (7) Лучший по количеству кубков (16) За отличные комментарии (10) Верный Сид (25) За участие в конкурсах/играх (5)

Сообщение Spartacus » 12 окт 2018, 18:43

Большое спасибо!!!
Аватара пользователя
Spartacus
Опытный Корсар
 
 

Награды: 3
Верный Сид (3)


Вернуться в Кино времён СССР



Uptime по данным Ping-Admin.Ru - сервиса мониторинга доступности сайтов
Рейтинг@Mail.ru Голосуйте за наш сайт в каталоге Rubo.Ru
cron