logo
Международный русскоязычный
торрент-трекер
Menu

Doublon
Поделиться с друзьями: 
Голосуй за Корсар и получи 150 дублонов
Рейтинг торрент трекеров - UpTracker.ru

Особенности национальной охоты (1995, Комедия, DVDRip-AVC) - KORSAR

Сообщение mister.hats » 10 фев 2018, 15:41


Особенности национальной охоты


Страна: Россия
Жанр: Комедия
Год выпуска: 1995
Продолжительность: 01:33:02
Перевод: Не требуется
Режиссер: Александр Рогожкин
В ролях: Алексей Булдаков, Виктор Бычков, Сергей Гусинский, Семен Стругачев, Сергей Русскин, Сергей Куприянов, Виллэ Хаапасало.

Описание: Молодой финский писатель решил написать книгу о русской охоте. Приехал в Россию. Попал на охоту...



Кодек: х264
Качество: DVDRip-AVC
Видео: MPEG-4 AVC, 714х464@761x464, 25 fps, 3850 Кбит/с
Аудио: АС3, 6h, 384 Кбит/с, АС3, 2h, 224 Кбит/с
Субтитры: Нет
Главы: Есть

Доп. информация: Исходник издан компанией TWISTER в 2001г.



x264 [info]: frame I:804 Avg QP:18.20 size: 83953
x264 [info]: frame P:34659 Avg QP:20.47 size: 39773
x264 [info]: frame B:104087 Avg QP:22.07 size: 11918

Общее
Уникальный идентификатор : 210325374786090187826141455588312988313 (0x9E3B3198B71B3421988865E5CE6BBA99)
Полное имя : E:\Мои рипы\Особенности национальной охоты 1995_DVDRip-AVC_KORSAR (1).mkv
Формат : Matroska
Версия формата : Version 2
Размер файла : 2,90 Гбайт
Продолжительность : 1 ч. 33 м.
Общий поток : 4460 Кбит/сек
Дата кодирования : UTC 2018-02-12 17:45:23
Программа кодирования : mkvmerge v5.8.0 ('No Sleep / Pillow') built on Sep 2 2012 15:37:04
Библиотека кодирования : libebml v1.2.3 + libmatroska v1.3.0

Видео
Идентификатор : 1
Формат : AVC
Формат/Информация : Advanced Video Codec
Профиль формата : High@L4.1
Настройки формата : CABAC / 14 Ref Frames
Параметр CABAC формата : Да
Параметр RefFrames формата : 14 кадров
Идентификатор кодека : V_MPEG4/ISO/AVC
Продолжительность : 1 ч. 33 м.
Битрейт : 3850 Кбит/сек
Ширина : 714 пикселей
Высота : 464 пикселя
Соотношение сторон : 16:10
Соотношение сторон в оригинале : 16:10
Режим частоты кадров : Постоянный
Частота кадров : 25,000 кадров/сек
Цветовое пространство : YUV
Субдискретизация насыщенности : 4:2:0
Битовая глубина : 8 бит
Тип развёртки : Прогрессивная
Бит/(Пиксели*Кадры) : 0.465
Размер потока : 2,45 Гбайт (84%)
Библиотека кодирования : x264 core 152 r2851kMod ba24899
Настройки программы : cabac=1 / ref=14 / deblock=1:-2:-1 / analyse=0x3:0x133 / me=umh / subme=11 / psy=1 / fade_compensate=0.00 / psy_rd=1.05:0.10 / mixed_ref=1 / me_range=48 / chroma_me=1 / trellis=2 / 8x8dct=1 / cqm=0 / deadzone=21,11 / fast_pskip=0 / chroma_qp_offset=-3 / threads=12 / lookahead_threads=2 / sliced_threads=0 / nr=0 / decimate=0 / interlaced=0 / bluray_compat=0 / constrained_intra=0 / bframes=9 / b_pyramid=2 / b_adapt=2 / b_bias=0 / direct=3 / weightb=1 / open_gop=0 / weightp=2 / keyint=250 / keyint_min=25 / scenecut=40 / intra_refresh=0 / rc_lookahead=40 / rc=2pass / mbtree=0 / bitrate=3850 / ratetol=1.0 / qcomp=0.60 / qpmin=0 / qpmax=39 / qpstep=4 / cplxblur=20.0 / qblur=0.5 / vbv_maxrate=50000 / vbv_bufsize=62500 / nal_hrd=none / filler=0 / ip_ratio=1.25 / pb_ratio=1.30 / aq=1:1.00
Язык : English
Default : Да
Forced : Нет
Цветовой диапазон : Limited
Основные цвета : BT.601 PAL
Характеристики трансфера : BT.470 System B, BT.470 System G
Коэффициенты матрицы : BT.470 System B, BT.470 System G

Аудио #1
Идентификатор : 2
Формат : AC-3
Формат/Информация : Audio Coding 3
Параметр Endianness формата : Big
Идентификатор кодека : A_AC3
Продолжительность : 1 ч. 33 м.
Вид битрейта : Постоянный
Битрейт : 384 Кбит/сек
Каналы : 6 каналов
Расположение каналов : Front: L C R, Side: L R, LFE
Частота : 48,0 КГц
Частота кадров : 31,250 кадров/сек (1536 SPF)
Битовая глубина : 16 бит
Метод сжатия : С потерями
Задержка видео : 80 мс.
Размер потока : 256 Мбайт (9%)
Язык : Russian
ServiceKind/String : Complete Main
Default : Да
Forced : Нет

Аудио #2
Идентификатор : 3
Формат : AC-3
Формат/Информация : Audio Coding 3
Параметр Endianness формата : Big
Идентификатор кодека : A_AC3
Продолжительность : 1 ч. 33 м.
Вид битрейта : Постоянный
Битрейт : 224 Кбит/сек
Каналы : 2 канала
Расположение каналов : Front: L R
Частота : 48,0 КГц
Частота кадров : 31,250 кадров/сек (1536 SPF)
Битовая глубина : 16 бит
Метод сжатия : С потерями
Задержка видео : 120 мс.
Размер потока : 149 Мбайт (5%)
Язык : Russian
ServiceKind/String : Complete Main
Default : Нет
Forced : Нет

Меню
00:00:00.000 : en:Chapter 1
00:02:55.120 : en:Chapter 2
00:05:31.000 : en:Chapter 3
00:11:01.840 : en:Chapter 4
00:12:43.440 : en:Chapter 5
00:18:27.960 : en:Chapter 6
00:24:21.840 : en:Chapter 7
00:31:20.280 : en:Chapter 8
00:37:45.720 : en:Chapter 9
00:39:46.440 : en:Chapter 10
00:43:15.960 : en:Chapter 11
00:46:37.320 : en:Chapter 12
00:52:21.880 : en:Chapter 13
00:53:39.240 : en:Chapter 14
00:56:10.560 : en:Chapter 15
00:59:13.560 : en:Chapter 16
01:02:24.480 : en:Chapter 17
01:04:15.760 : en:Chapter 18
01:05:20.720 : en:Chapter 19
01:05:59.480 : en:Chapter 20
01:09:50.120 : en:Chapter 21
01:15:11.600 : en:Chapter 22
01:17:17.840 : en:Chapter 23
01:18:35.960 : en:Chapter 24
01:21:45.800 : en:Chapter 25
01:24:50.480 : en:Chapter 26
01:30:28.240 : en:Chapter 27





Сравнение с исходником
Последний раз редактировалось mister.hats 12 фев 2018, 21:14, всего редактировалось 3 раз(а).

Тот кто не с нами, тот против нас
Аватара пользователя
mister.hats
Заслуженный Корсар-Вип
 
 

Награды: 43
За помощь проекту (5) Лучший по количеству кубков (9) За отличные раздачи и качество (19) За подробное оформление раздач (1) За отличные комментарии (1) Верный Сид (8)
Раздачи группы KORSAR разрешено перезаливать спустя сутки после публикации
  • Торрент
Для скачивания торрента необходимо зарегистрироваться или войти на трекер.

Сообщение Valet » 10 фев 2018, 20:00

Говоря об «Особенностях национальной охоты» нельзя не упомянуть по крайней мере нескольких героев, чьи образы и фразы моментально ушли в народ. Пальму первенства по популярности делят между собой егерь Кузьмич в исполнении Виктора Бычкова, а также генерал Михалыч от Алексея Булакова. И первого, и второго можно смело называть душой постановки.
Аватара пользователя
Valet
Опытный Релизёр-Корсар
 
 

Награды: 14
Лучший по количеству кубков (1) За отличные раздачи и качество (7) За отличные комментарии (3)

Сообщение verybigpapa » 11 фев 2018, 00:16

Уважаемый mister.hats, большое спасибо :hi:
Улыбайтесь, господа! Улыбайтесь!
Аватара пользователя
verybigpapa
Заслуженный Корсар-Вип
 
 

Награды: 32
За помощь проекту (12) Лучший по количеству кубков (8) За отличные комментарии (4) Верный Сид (8)

Сообщение podruzhka » 11 фев 2018, 11:26

Ура!!! Спасибо огромное!!!
Аватара пользователя
podruzhka
Заслуженный Корсар-Вип
 
 

Награды: 9
За помощь проекту (2) За отличные комментарии (3) Верный Сид (4)

Сообщение KniazidisR » 11 фев 2018, 11:34

Вот спасибочки, ждал с большим нетерпением. В трюм, сразу после "Вия".
Последний раз редактировалось KniazidisR 11 фев 2018, 23:08, всего редактировалось 1 раз.
Аватара пользователя
KniazidisR
Опытный Корсар
 
 

Награды: 1
За отличные комментарии (1)

Сообщение kwazar312 » 11 фев 2018, 13:08

Уважаемый mister.hats,спасибо за хороший фильм,только возникает вопрос,а как скачивать,не вижу сноски на скачивание.
Удачи ВАМ.
Аватара пользователя
kwazar312
Заслуженный Корсар-Вип
 
 

Награды: 51
За помощь проекту (5) Лучший по количеству кубков (13) За отличные комментарии (6) Верный Сид (22) За участие в конкурсах/играх (5)

Сообщение filbi1976 » 11 фев 2018, 13:12

kwazar312 писал(а):Уважаемый mister.hats,спасибо за хороший фильм,только возникает вопрос,а как скачивать,не вижу сноски на скачивание.
Удачи ВАМ.

Рип на переделке, потерпите.
Аватара пользователя
filbi1976
Администратор-Корсар
 
 

Награды: 47
За помощь проекту (1) За отличные раздачи и качество (33) Верный Сид (10) За участие в конкурсах/играх (1)

Сообщение Bars_St » 12 фев 2018, 08:05

Спасибо!!! :hi: :hi: :hi: Замечательное кино :super:
Аватара пользователя
Bars_St
Заслуженный Корсар-Вип
 
 

Награды: 27
За помощь проекту (9) Лучший по количеству кубков (3) За отличные комментарии (7) Верный Сид (8)

Сообщение mister.hats » 12 фев 2018, 21:13

Ребята, как оказалось был битый файл.
Рип заново переделал и чуть улушил картинку, это окончательный вариант.
Перекачайте торент файл и всем приятного просмотра.
Еще раз приношу всем свои извинения. :hi:

Тот кто не с нами, тот против нас
Аватара пользователя
mister.hats
Заслуженный Корсар-Вип
 
 

Награды: 43
За помощь проекту (5) Лучший по количеству кубков (9) За отличные раздачи и качество (19) За подробное оформление раздач (1) За отличные комментарии (1) Верный Сид (8)

Сообщение podruzhka » 13 фев 2018, 08:08

Спасибо вам за вашу работу!!! Фильм действительно замечательный)
Аватара пользователя
podruzhka
Заслуженный Корсар-Вип
 
 

Награды: 9
За помощь проекту (2) За отличные комментарии (3) Верный Сид (4)

Сообщение ekuprienko » 13 фев 2018, 17:29

Да, действительно хороший фильм!, если бы ещё в 720р релиз такой, хотя...., качества хорошего источника не найти. Но всё равно спасибо.
Аватара пользователя
ekuprienko
Опытный Корсар
 
 

Награды: 1
Верный Сид (1)

Сообщение KniazidisR » 14 фев 2018, 09:21

Спасибо за переделку рипа, качество теперь просто изумительное. Молодцы ребята, даже в 720р уже не вижу необходимости
Аватара пользователя
KniazidisR
Опытный Корсар
 
 

Награды: 1
За отличные комментарии (1)

Сообщение alcominimalist » 17 апр 2018, 05:45

Спасибо! Отличное кино.
Полное название фильма - ''Особенности национальной охоты в осенний период''.

Чтобы усыпить медведя для сцены фотографирования с ним ''охотников'', потребовалось две бутылки коньяка. Во время съёмок эпизода медвежонок неожиданно проснулся и укусил Семёна Стругачёва. Именно этот дубль было решено оставить в окончательном монтаже картины.

Роль коровы Кузьмича играли три бурёнки. Чтобы расцветка, количество и форма пятен на коже рогатых ''актрис'' были одинаковыми, художники перед каждой съёмкой раскрашивали коров гуашью. Одна из коров, та, которую погрузили в самолёт, вскоре после съёмок отелилась (наверно со страху). Телёнок был назван Лётчиком.
Аватара пользователя
alcominimalist
Заслуженный Корсар-Вип
 
 

Награды: 27
За помощь проекту (1) Лучший по количеству кубков (4) За отличные комментарии (8) Почётный форумчанин (3) Верный Сид (7) За участие в конкурсах/играх (4)


Вернуться в Наше современное кино



Uptime по данным Ping-Admin.Ru - сервиса мониторинга доступности сайтов
Рейтинг@Mail.ru