logo
Международный русскоязычный
торрент-трекер
Menu
"Бунт на корабле", за скачанные торрент-файлы дублоны не снимаются. Возможность оплачена пользователем Жорин Сергей.
Doublon
Поделиться с друзьями: 
Голосуй за Корсар и получи 500 дублонов
Рейтинг торрент трекеров - UpTracker.ru

Ослепленный светом / Blinded by the Light (2019, Драма, комедия, музыка, биография, BDRip 720p) | iTunes

Сообщение al1ksandr » 14 фев 2020, 13:05

Название: Ослепленный светом
Оригинальное название: Blinded by the Light
Год выхода: 2019
Жанр: Драма, комедия, музыка, биография
Режиссер: Гуриндер Чадха
В ролях: Вивеик Калра, Кулвиндер Гир, Мира Ганатра, Аарон Фагура, Дин-Чарльз Чепмен, Никита Мехта, Нелл Уильямс, Тара Дивина, Роб Брайдон, Фрэнки Фокс

О фильме: 1987 год. Шестнадцатилетний школьник Джавед из семьи пакистанских эмигрантов живет в небольшом английском городе Лутоне. Его жизнь кроткого и замкнутого подростка переворачивается благодаря влиянию музыки Брюса Спрингстина. Вдохновившись ей, Джавед учится жить полноценной жизнью, понимать свою семью и обрести свой собственный голос. Он решается сделать то, на что раньше считал себя неспособным...



Страна: Великобритания, США
Студия: Bend It Films, Ingenious Media, Levantine Films
Продолжительность: 01:57:46
Перевод: Дублированный | iTunes

Качество: BDRip 720p
Видео: MPEG-4 AVC, 1280x536, 6955 Kbit/s, 23.976 fps
Аудио #01: 48 kHz, AC3, 5.1, 384 Kbps | iTunes | RUS |
Аудио #02: 48 kHz, AC3, 5.1, 640 Kbps | Оригинал | ENG |
Субтитры: Русские (Forced, full), английские


General
Unique ID : 53402011000323204314033023829052853724 (0x282CDA6BD03ADECD3E0791EEFAF98DDC)
Complete name : E:Video111Blinded.by.the.Light.2019.BDRip.720p.seleZen.mkv
Format : Matroska
Format version : Version 4
File size : 6.57 GiB
Duration : 1 h 57 min
Overall bit rate : 7 982 kb/s
Movie name : Blinded.by.the.Light.2019 from селезень
Encoded date : UTC 2020-02-14 08:43:49
Writing application : mkvmerge v40.0.0 ('Old Town Road + Pony') 64-bit
Writing library : libebml v1.3.9 + libmatroska v1.5.2

Video
ID : 1
Format : AVC
Format/Info : Advanced Video Codec
Format profile : High@L4.1
Format settings : CABAC / 12 Ref Frames
Format settings, CABAC : Yes
Format settings, Reference : 12 frames
Codec ID : V_MPEG4/ISO/AVC
Duration : 1 h 57 min
Bit rate : 6 955 kb/s
Width : 1 280 pixels
Height : 536 pixels
Display aspect ratio : 2.40:1
Frame rate mode : Constant
Frame rate : 23.976 (24000/1001) FPS
Color space : YUV
Chroma subsampling : 4:2:0
Bit depth : 8 bits
Scan type : Progressive
Bits/(Pixel*Frame) : 0.423
Stream size : 5.72 GiB (87%)
Title : PTer
Writing library : x264 core 158 r2984+47 456d10a t_mod_New [0-bit@all X86_64]
Encoding settings : cabac=1 / ref=12 / deblock=1:-3:-3 / analyse=0x3:0x133 / me=umh / subme=11 / psy=1 / fade_compensate=0.00 / psy_rd=1.05:0.00 / mixed_ref=1 / me_range=32 / chroma_me=1 / trellis=2 / 8x8dct=1 / cqm=0 / deadzone=21,11 / fast_pskip=0 / chroma_qp_offset=-2 / threads=12 / lookahead_threads=3 / sliced_threads=0 / nr=0 / decimate=0 / interlaced=0 / bluray_compat=0 / constrained_intra=0 / fgo=0 / bframes=10 / b_pyramid=2 / b_adapt=2 / b_bias=0 / direct=3 / weightb=1 / open_gop=0 / weightp=2 / keyint=250 / keyint_min=23 / scenecut=40 / intra_refresh=0 / rc_lookahead=250 / rc=crf / mbtree=0 / crf=14.4000 / qcomp=0.65 / qpmin=0:0:0 / qpmax=69:69:69 / qpstep=4 / vbv_maxrate=62500 / vbv_bufsize=78125 / crf_max=0.0 / nal_hrd=none / filler=0 / ip_ratio=1.30 / pb_ratio=1.20 / aq=3:0.90 / aq-sensitivity=10.00 / aq-factor=1.00:1.00:1.00 / aq2=0 / aq3=0
Language : English
Default : Yes
Forced : No
Color range : Limited
Color primaries : BT.709
Matrix coefficients : BT.709

Audio #1
ID : 2
Format : AC-3
Format/Info : Audio Coding 3
Commercial name : Dolby Digital
Codec ID : A_AC3
Duration : 1 h 57 min
Bit rate mode : Constant
Bit rate : 384 kb/s
Channel(s) : 6 channels
Channel layout : L R C LFE Ls Rs
Sampling rate : 48.0 kHz
Frame rate : 31.250 FPS (1536 SPF)
Compression mode : Lossy
Stream size : 323 MiB (5%)
Title : iTunes
Language : Russian
Service kind : Complete Main
Default : Yes
Forced : Yes

Audio #2
ID : 3
Format : AC-3
Format/Info : Audio Coding 3
Commercial name : Dolby Digital
Codec ID : A_AC3
Duration : 1 h 57 min
Bit rate mode : Constant
Bit rate : 640 kb/s
Channel(s) : 6 channels
Channel layout : L R C LFE Ls Rs
Sampling rate : 48.0 kHz
Frame rate : 31.250 FPS (1536 SPF)
Compression mode : Lossy
Stream size : 539 MiB (8%)
Title : Original
Language : English
Service kind : Complete Main
Default : No
Forced : No

Text #1
ID : 4
Format : UTF-8
Codec ID : S_TEXT/UTF8
Codec ID/Info : UTF-8 Plain Text
Duration : 1 h 51 min
Bit rate : 1 b/s
Count of elements : 22
Stream size : 1.19 KiB (0%)
Title : Forced
Language : Russian
Default : Yes
Forced : Yes

Text #2
ID : 5
Format : UTF-8
Codec ID : S_TEXT/UTF8
Codec ID/Info : UTF-8 Plain Text
Duration : 1 h 51 min
Bit rate : 95 b/s
Count of elements : 1463
Stream size : 77.7 KiB (0%)
Title : Full
Language : Russian
Default : No
Forced : No

Text #3
ID : 6
Format : UTF-8
Codec ID : S_TEXT/UTF8
Codec ID/Info : UTF-8 Plain Text
Duration : 1 h 50 min
Bit rate : 61 b/s
Count of elements : 1636
Stream size : 49.5 KiB (0%)
Title : SDH
Language : English
Default : No
Forced : No

Menu
00:00:00.000 : en:Chapter 01
00:11:10.211 : en:Chapter 02
00:20:03.661 : en:Chapter 03
00:30:13.270 : en:Chapter 04
00:39:49.596 : en:Chapter 05
00:48:52.054 : en:Chapter 06
00:58:27.212 : en:Chapter 07
01:08:39.490 : en:Chapter 08
01:19:01.820 : en:Chapter 09
01:28:16.791 : en:Chapter 10
01:40:07.043 : en:Chapter 11
01:51:37.399 : en:Chapter 12


Релиз от:
КУБКИ

СТАЖ

МЕДАЛИ
Награды:44

За активную помощь проекту (4) Лучший по количеству кубков (15) За отличные раздачи и качество (7) За отличные комментарии (13) Почётный форумчанин (1) Верный Сид (1) За участие в конкурсах/играх (2)

Аватара пользователя
СССР
al1ksandr
Главный Модератор-Корсар
  • Торрент
Для скачивания торрента необходимо зарегистрироваться или войти на трекер.

Вернуться в Зарубежное кино (2011-2020 / HD Video)



Uptime по данным Ping-Admin.Ru - сервиса мониторинга доступности сайтов
Рейтинг@Mail.ru