logo
Международный русскоязычный
торрент-трекер
Menu
"Бунт на корабле", за скачанные торрент-файлы дублоны не снимаются. Возможность оплачена пользователем Жорин Сергей.
Doublon
Поделиться с друзьями: 
Голосуй за Корсар и получи 500 дублонов
Рейтинг торрент трекеров - UpTracker.ru

Ослепленный светом / Blinded by the Light (2019, Драма, комедия, музыка, биография, BDRemux 1080p) | iTunes

Сообщение al1ksandr » 14 фев 2020, 13:05

Название: Ослепленный светом
Оригинальное название: Blinded by the Light
Год выхода: 2019
Жанр: Драма, комедия, музыка, биография
Режиссер: Гуриндер Чадха
В ролях: Вивеик Калра, Кулвиндер Гир, Мира Ганатра, Аарон Фагура, Дин-Чарльз Чепмен, Никита Мехта, Нелл Уильямс, Тара Дивина, Роб Брайдон, Фрэнки Фокс

О фильме: 1987 год. Шестнадцатилетний школьник Джавед из семьи пакистанских эмигрантов живет в небольшом английском городе Лутоне. Его жизнь кроткого и замкнутого подростка переворачивается благодаря влиянию музыки Брюса Спрингстина. Вдохновившись ей, Джавед учится жить полноценной жизнью, понимать свою семью и обрести свой собственный голос. Он решается сделать то, на что раньше считал себя неспособным...



Страна: Великобритания, США
Студия: Bend It Films, Ingenious Media, Levantine Films
Продолжительность: 01:57:46
Перевод: Дублированный | iTunes

Качество: BDRemux 1080p
Видео: MPEG-4 AVC, 1920x1080, 21.6 Mbit/s, 23.976 fps
Аудио #01: 48 kHz, AC3, 5.1, 384 Kbps | iTunes | RUS |
Аудио #02: 48 kHz, TrueHD, 7.1, 3703 Kbps | Оригинал | ENG |
Аудио #03: 48 kHz, AC3, 5.1, 448 Kbps | Оригинал | ENG |
Субтитры: Русские (Forced, full), английские


General
Unique ID : 302416842634257041069489371366335408700 (0xE3835D83C0AD509190A216C2AC3F6A3C)
Complete name : E:Video111Blinded.by.the.Light.2019.BDREMUX.1080p.seleZen.mkv
Format : Matroska
Format version : Version 4
File size : 21.6 GiB
Duration : 1 h 57 min
Overall bit rate mode : Variable
Overall bit rate : 26.2 Mb/s
Movie name : Blinded.by.the.Light.2019 from селезень
Encoded date : UTC 2020-02-14 08:50:31
Writing application : mkvmerge v40.0.0 ('Old Town Road + Pony') 64-bit
Writing library : libebml v1.3.9 + libmatroska v1.5.2

Video
ID : 1
Format : AVC
Format/Info : Advanced Video Codec
Format profile : High@L4.1
Format settings : CABAC / 4 Ref Frames
Format settings, CABAC : Yes
Format settings, Reference : 4 frames
Codec ID : V_MPEG4/ISO/AVC
Duration : 1 h 57 min
Bit rate mode : Variable
Bit rate : 21.6 Mb/s
Maximum bit rate : 24.0 Mb/s
Width : 1 920 pixels
Height : 1 080 pixels
Display aspect ratio : 16:9
Frame rate mode : Constant
Frame rate : 23.976 (24000/1001) FPS
Color space : YUV
Chroma subsampling : 4:2:0
Bit depth : 8 bits
Scan type : Progressive
Bits/(Pixel*Frame) : 0.434
Stream size : 17.8 GiB (82%)
Language : English
Default : Yes
Forced : No

Audio #1
ID : 2
Format : AC-3
Format/Info : Audio Coding 3
Commercial name : Dolby Digital
Codec ID : A_AC3
Duration : 1 h 57 min
Bit rate mode : Constant
Bit rate : 384 kb/s
Channel(s) : 6 channels
Channel layout : L R C LFE Ls Rs
Sampling rate : 48.0 kHz
Frame rate : 31.250 FPS (1536 SPF)
Compression mode : Lossy
Stream size : 323 MiB (1%)
Title : iTunes
Language : Russian
Service kind : Complete Main
Default : Yes
Forced : Yes

Audio #2
ID : 3
Format : MLP FBA 16-ch
Format/Info : Meridian Lossless Packing FBA with 16-channel presentation
Commercial name : Dolby TrueHD with Dolby Atmos
Codec ID : A_TRUEHD
Duration : 1 h 57 min
Bit rate mode : Variable
Bit rate : 3 703 kb/s
Maximum bit rate : 5 883 kb/s
Channel(s) : 8 channels
Channel layout : L R C LFE Ls Rs Lb Rb
Sampling rate : 48.0 kHz
Frame rate : 1 200.000 FPS (40 SPF)
Compression mode : Lossless
Stream size : 3.05 GiB (14%)
Title : Original
Language : English
Default : No
Forced : No
Number of dynamic objects : 15
Bed channel count : 1 channel
Bed channel configuration : LFE

Audio #3
ID : 4
Format : AC-3
Format/Info : Audio Coding 3
Commercial name : Dolby Digital
Codec ID : A_AC3
Duration : 1 h 57 min
Bit rate mode : Constant
Bit rate : 448 kb/s
Channel(s) : 6 channels
Channel layout : L R C LFE Ls Rs
Sampling rate : 48.0 kHz
Frame rate : 31.250 FPS (1536 SPF)
Compression mode : Lossy
Stream size : 377 MiB (2%)
Language : English
Service kind : Complete Main
Default : No
Forced : No

Text #1
ID : 5
Format : UTF-8
Codec ID : S_TEXT/UTF8
Codec ID/Info : UTF-8 Plain Text
Duration : 1 h 51 min
Bit rate : 1 b/s
Count of elements : 22
Stream size : 1.19 KiB (0%)
Title : Forced
Language : Russian
Default : Yes
Forced : Yes

Text #2
ID : 6
Format : UTF-8
Codec ID : S_TEXT/UTF8
Codec ID/Info : UTF-8 Plain Text
Duration : 1 h 51 min
Bit rate : 95 b/s
Count of elements : 1463
Stream size : 77.7 KiB (0%)
Title : Full
Language : Russian
Default : No
Forced : No

Text #3
ID : 7
Format : UTF-8
Codec ID : S_TEXT/UTF8
Codec ID/Info : UTF-8 Plain Text
Duration : 1 h 50 min
Bit rate : 61 b/s
Count of elements : 1636
Stream size : 49.5 KiB (0%)
Title : SDH
Language : English
Default : No
Forced : No

Menu
00:00:00.000 : en:Chapter 01
00:11:10.211 : en:Chapter 02
00:20:03.661 : en:Chapter 03
00:30:13.270 : en:Chapter 04
00:39:49.596 : en:Chapter 05
00:48:52.054 : en:Chapter 06
00:58:27.212 : en:Chapter 07
01:08:39.490 : en:Chapter 08
01:19:01.820 : en:Chapter 09
01:28:16.791 : en:Chapter 10
01:40:07.043 : en:Chapter 11
01:51:37.399 : en:Chapter 12


Релиз от:
КУБКИ

СТАЖ

МЕДАЛИ
Награды:44

За активную помощь проекту (4) Лучший по количеству кубков (15) За отличные раздачи и качество (7) За отличные комментарии (13) Почётный форумчанин (1) Верный Сид (1) За участие в конкурсах/играх (2)

Аватара пользователя
СССР
al1ksandr
Главный Модератор-Корсар
  • Торрент
Для скачивания торрента необходимо зарегистрироваться или войти на трекер.

Вернуться в Зарубежное кино (2011-2020 / HD Video)



Uptime по данным Ping-Admin.Ru - сервиса мониторинга доступности сайтов
Рейтинг@Mail.ru