logo
Международный русскоязычный
торрент-трекер
Menu

Doublon
Поделиться с друзьями: 
Голосуй за Корсар и получи 150 дублонов
Рейтинг торрент трекеров - UpTracker.ru

Ошибка резидента (1968, психологический детектив, DVDRip-AVC)

Сообщение Korsar » 26 янв 2017, 15:09


Ошибка резидента (2 серии)

Жанр: психологический детектив
Год выпуска: 1968
Продолжительность: 01:07:51 + 01:06:07
Навигация по главам: есть
Субтитры: английские

Режиссёр: Вениамин Дорман

В ролях: Георгий Жжёнов, Михаил Ножкин, Олег Жаков, Элеонора Шашкова, Ефим Копелян, Николай Прокопович, Владимир Гусев, Ирина Мирошниченко, Вадим Захарченко, Николай Граббе, Николай Бриллинг, Ростислав Плятт, Эрвин Кнаусмюллер, Глеб Плаксин, Николай Бубнов, Юрий Волынцев, Анастасия Георгиевская, Александр Гречаный, Владимир Гуляев, Владимир Пицек, Николай Смирнов, Борис Юрченко, Геннадий Юхтин, Георгий Оболенский, Иван Савкин

Описание: Первый фильм тетралогии о профессиональном разведчике Михаиле Тульеве. Первая часть фильма называется «По старой легенде», вторая — «Возвращение Бекаса».

Психологический детектив, рассказывающий о судьбе опытного разведчика Тульева, сына русского эмигранта. Действие происходит в первой половине 1960-х годов. Тульев прибыл в СССР по старой легенде, заготовленной ещё гитлеровской разведкой, чтобы прочно осесть на месте, активизировать старых агентов и завербовать новых. На след резидента под псевдонимом «Надежда», благодаря странному анонимному письму из-за границы, выходит служба контрразведки КГБ СССР. Также в поле его зрения появляется ловкий и разбитной уголовник Бекас...

"До и после": http://vimeo.com/53923801

Семпл: http://multi-up.com/803220

Качество видео: DVDRip-AVC
Формат видео: MKV

Видео:
1 серия - x264/AVC, 696x352 (2.11:1), 25 fps, 2388 Kbps, 0.390 bpp
2 серия - x264/AVC, 696x352 (2.11:1), 25 fps, 2411 Kbps, 0.394 bpp
Аудио: Dolby AC3, 48 kHz, 192 Kbps, 1 ch
Субтитры: English (VobSub), English (ASS)
Уникальный идентификатор : 213270932260721764587074980190044468562 (0xA0727CCAE36B19BF85ECD7563196B552)
Полное имя : The Secret Agent's Blunder (1968)\The Secret Agent's Blunder Pt 1 (1968).mkv
Формат : Matroska
Версия формата : Version 4 / Version 2
Размер файла : 1,25 Гбайт
Продолжительность : 1 ч. 7 м.
Общий поток : 2632 Кбит/сек
Название фильма : Ошибка Резидента Part 1 (1968)
Дата кодирования : UTC 2010-02-22 21:41:31
Программа кодирования : mkvmerge v5.9.0 ('On The Loose') built on Dec 9 2012 15:37:01
Библиотека кодирования : libebml v1.3.0 + libmatroska v1.4.0

Видео
Идентификатор : 1
Формат : AVC
Формат/Информация : Advanced Video Codec
Профиль формата : High@L3.1
Параметр CABAC формата : Да
Параметр ReFrames формата : 16 кадров
Идентификатор кодека : V_MPEG4/ISO/AVC
Продолжительность : 1 ч. 7 м.
Битрейт : 2388 Кбит/сек
Ширина : 696 пикселей
Высота : 352 пикселя
Соотношение сторон : 2,108
Соотношение сторон в оригинале : 1,977
Режим частоты кадров : Постоянный
Частота кадров : 25,000 кадров/сек
Цветовое пространство : YUV
Субдискретизация насыщенности : 4:2:0
Битовая глубина : 8 бит
Тип развёртки : Прогрессивная
Бит/(Пиксели*Кадры) : 0.390
Размер потока : 1,13 Гбайт (91%)
Библиотека кодирования : x264 core 129 r2230 1cffe9f
Настройки программы : cabac=1 / ref=16 / deblock=1:-1:-1 / analyse=0x3:0x133 / me=umh / subme=10 / psy=1 / psy_rd=1.00:0.15 / mixed_ref=1 / me_range=24 / chroma_me=1 / trellis=2 / 8x8dct=1 / cqm=0 / deadzone=21,11 / fast_pskip=1 / chroma_qp_offset=-3 / threads=12 / lookahead_threads=2 / sliced_threads=0 / nr=0 / decimate=1 / interlaced=0 / bluray_compat=0 / constrained_intra=0 / bframes=8 / b_pyramid=2 / b_adapt=2 / b_bias=0 / direct=3 / weightb=1 / open_gop=0 / weightp=2 / keyint=250 / keyint_min=25 / scenecut=40 / intra_refresh=0 / rc_lookahead=60 / rc=crf / mbtree=1 / crf=17.0 / qcomp=0.60 / qpmin=0 / qpmax=69 / qpstep=4 / ip_ratio=1.40 / aq=1:1.00
Default : Да
Forced : Нет

Аудио
Идентификатор : 2
Формат : AC-3
Формат/Информация : Audio Coding 3
Расширение режима : CM (complete main)
Параметр Endianness формата : Big
Идентификатор кодека : A_AC3
Продолжительность : 1 ч. 7 м.
Вид битрейта : Постоянный
Битрейт : 192 Кбит/сек
Каналы : 1 канал
Расположение каналов : Front: C
Частота : 48,0 КГц
Битовая глубина : 16 бит
Метод сжатия : С потерями
Размер потока : 93,2 Мбайт (7%)
Язык : Russian
Default : Да
Forced : Нет

Текст #1
Идентификатор : 3
Формат : VobSub
Идентификатор кодека : S_VOBSUB
Идентификатор кодека/Информация : The same subtitle format used on DVDs
Язык : English
Default : Да
Forced : Нет

Текст #2
Идентификатор : 4
Формат : ASS
Идентификатор кодека : S_TEXT/ASS
Идентификатор кодека/Информация : Advanced Sub Station Alpha
Метод сжатия : Без потерь
Заголовок : High-resolution SSA
Язык : English
Default : Нет
Forced : Нет

Меню
00:00:00.000 : :Chapter 1
00:05:00.000 : :Chapter 2
00:10:00.000 : :Chapter 3
00:15:00.000 : :Chapter 4
00:20:00.000 : :Chapter 5
00:25:00.000 : :Chapter 6
00:30:00.000 : :Chapter 7
00:35:00.000 : :Chapter 8
00:40:00.000 : :Chapter 9
00:45:00.000 : :Chapter 10
00:50:00.000 : :Chapter 11
00:55:00.000 : :Chapter 12
01:00:00.000 : :Chapter 13
01:05:00.000 : :Chapter 14

Уникальный идентификатор : 182927109741410095121368355247959447831 (0x899E7AD614C684B5A596F0AFD76A1917)
Полное имя : The Secret Agent's Blunder (1968)\The Secret Agent's Blunder Pt 2 (1968).mkv
Формат : Matroska
Версия формата : Version 4 / Version 2
Размер файла : 1,23 Гбайт
Продолжительность : 1 ч. 6 м.
Общий поток : 2656 Кбит/сек
Название фильма : Ошибка Резидента Part 2 (1968)
Дата кодирования : UTC 2010-02-22 21:41:31
Программа кодирования : mkvmerge v5.9.0 ('On The Loose') built on Dec 9 2012 15:37:01
Библиотека кодирования : libebml v1.3.0 + libmatroska v1.4.0

Видео
Идентификатор : 1
Формат : AVC
Формат/Информация : Advanced Video Codec
Профиль формата : High@L3.1
Параметр CABAC формата : Да
Параметр ReFrames формата : 16 кадров
Идентификатор кодека : V_MPEG4/ISO/AVC
Продолжительность : 1 ч. 6 м.
Битрейт : 2411 Кбит/сек
Ширина : 696 пикселей
Высота : 352 пикселя
Соотношение сторон : 2,108
Соотношение сторон в оригинале : 1,977
Режим частоты кадров : Постоянный
Частота кадров : 25,000 кадров/сек
Цветовое пространство : YUV
Субдискретизация насыщенности : 4:2:0
Битовая глубина : 8 бит
Тип развёртки : Прогрессивная
Бит/(Пиксели*Кадры) : 0.394
Размер потока : 1,11 Гбайт (91%)
Библиотека кодирования : x264 core 129 r2230 1cffe9f
Настройки программы : cabac=1 / ref=16 / deblock=1:-1:-1 / analyse=0x3:0x133 / me=umh / subme=10 / psy=1 / psy_rd=1.00:0.15 / mixed_ref=1 / me_range=24 / chroma_me=1 / trellis=2 / 8x8dct=1 / cqm=0 / deadzone=21,11 / fast_pskip=1 / chroma_qp_offset=-3 / threads=12 / lookahead_threads=2 / sliced_threads=0 / nr=0 / decimate=1 / interlaced=0 / bluray_compat=0 / constrained_intra=0 / bframes=8 / b_pyramid=2 / b_adapt=2 / b_bias=0 / direct=3 / weightb=1 / open_gop=0 / weightp=2 / keyint=250 / keyint_min=25 / scenecut=40 / intra_refresh=0 / rc_lookahead=60 / rc=crf / mbtree=1 / crf=17.0 / qcomp=0.60 / qpmin=0 / qpmax=69 / qpstep=4 / ip_ratio=1.40 / aq=1:1.00
Default : Да
Forced : Нет

Аудио
Идентификатор : 2
Формат : AC-3
Формат/Информация : Audio Coding 3
Расширение режима : CM (complete main)
Параметр Endianness формата : Big
Идентификатор кодека : A_AC3
Продолжительность : 1 ч. 6 м.
Вид битрейта : Постоянный
Битрейт : 192 Кбит/сек
Каналы : 1 канал
Расположение каналов : Front: C
Частота : 48,0 КГц
Битовая глубина : 16 бит
Метод сжатия : С потерями
Размер потока : 90,8 Мбайт (7%)
Язык : Russian
Default : Да
Forced : Нет

Текст #1
Идентификатор : 3
Формат : VobSub
Идентификатор кодека : S_VOBSUB
Идентификатор кодека/Информация : The same subtitle format used on DVDs
Язык : English
Default : Да
Forced : Нет

Текст #2
Идентификатор : 4
Формат : ASS
Идентификатор кодека : S_TEXT/ASS
Идентификатор кодека/Информация : Advanced Sub Station Alpha
Метод сжатия : Без потерь
Заголовок : High-resolution SSA
Язык : English
Default : Нет
Forced : Нет

Меню
00:00:00.000 : :Chapter 1
00:05:00.000 : :Chapter 2
00:10:00.000 : :Chapter 3
00:15:00.000 : :Chapter 4
00:20:00.000 : :Chapter 5
00:25:00.000 : :Chapter 6
00:30:00.000 : :Chapter 7
00:35:00.000 : :Chapter 8
00:40:00.000 : :Chapter 9
00:45:00.000 : :Chapter 10
00:50:00.000 : :Chapter 11
00:55:00.000 : :Chapter 12
01:00:00.000 : :Chapter 13
01:05:00.000 : :Chapter 14
- с конкурентом
http://imgur.com/a/5fD89

Боцман
Аватара пользователя
Korsar
Помощник Администратора-Корсар
 
 

Награды: 25
За помощь проекту (1) За отличные раздачи и качество (10) За подробное оформление раздач (1) За отличные комментарии (1) Верный Сид (8) За участие в конкурсах (2)
  • Торрент
Для скачивания торрента необходимо зарегистрироваться или войти на трекер.

Вернуться в Кино времён СССР



Uptime по данным Ping-Admin.Ru - сервиса мониторинга доступности сайтов
Рейтинг@Mail.ru